вход на сайт

Имя пользователя :
Пароль :

Восстановление пароля Регистрация
Франкенвини / Frankenweenie (Тим Бёртон, Mультфильм, ужасы, фантастика, комедия, семейный, 2012) [BDRip 720p, Дубляж, Оригинал (английский), Sub]
Рейтинг:
(голосов: 1)



[img]{THEME}/images/logopost.png[/img]



Франкенвини / Frankenweenie
«The electrifying dog is back from beyond the grave»


Год выпуска: 2012
Страна: США
Производство: Tim Burton Animation Co., Tim Burton Productions, Walt Disney Pictures
Жанр: Mультфильм, ужасы, фантастика, комедия, семейный

Режиссёр: Тим Бёртон
В ролях: Чарли Тахэн, Кэтрин О’Хара, Мартин Шорт, Мартин Ландау, Вайнона Райдер, Аттикус Шаффер, Роберт Капрон, Кристофер Ли, Кончата Феррелл, Джеймс Хироюки Лиао

Перевод: Дубляж, Оригинал (английский)
Субтитры:Russian [Groby, mina217], English [Full, SDH], French, Spanish

Описание: Обожаемый мальчиком Виктором пес Спарки погибает в результате несчастного случая. Мальчик, не желая мириться с потерей друга, призывает науку на помощь и…возвращает питомца к жизни! Казалось бы, все не так уж плохо, но когда Спарки сбегает от Виктора, его друзья, родители, учителя и жители городка узнают, что возвращение к жизни домашнего питомца может повлечь за собой неожиданные и даже ужасные последствия




Качество: BDRip 720p |Сэмпл
Продолжительность:01:26:57 час.


Формат: MKV
Видео кодек: x264
Аудио кодек: AC3
Видео: 1280x694 (2.40:1), 23.976 fps, x264 ~6 060 kbps avg, 0.285 bit/pixel
Аудио#1: Dolby Digital Audio640 kbps5.1 / 48 kHz / 640 kbps - (Дубляж)
Аудио#2: Dolby Digital Audio640 kbps5.1 / 48 kHz / 640 kbps- (Оригинал)

Дата премьеры (мир): 20 сентября 2012
Дата премьеры (РФ): 11 октября 2012, «WDSSPR»

MediaInfo ▼
General
Unique ID : 206818131233512116951382828317840117508 (0x9B97B9238929049EB35CBDC343CE0F04)
Complete name : Frankenvini.2012.D.BDRip.720p.IRONCLUB.mkv
Format : Matroska
Format version : Version 2
File size : 4.55 GiB
Duration : 1h 26mn
Overall bit rate : 7 489 Kbps
Movie name : IRONCLUB
Encoded date : UTC 2013-01-26 11:27:44
Writing application : mkvmerge v5.2.0 (I cant explain) built on Dec 18 2011 18:12:03
Writing library : libebml v1.2.3 + libmatroska v1.3.0

Video
ID : 1
Format : AVC
Format/Info : Advanced Video Codec
Format profile : [email protected]
Format settings, CABAC : Yes
Format settings, ReFrames : 9 frames
Codec ID : V_MPEG4/ISO/AVC
Duration : 1h 26mn
Bit rate : 6 060 Kbps
Width : 1 280 pixels
Height : 694 pixels
Display aspect ratio : 1.85:1
Frame rate : 23.976 fps
Color space : YUV
Chroma subsampling : 4:2:0
Bit depth : 8 bits
Scan type : Progressive
Bits/(Pixel*Frame) : 0.285
Stream size : 3.68 GiB (81%)
Title : Frankenweenie.2012.720p.BluRay.DD5.1.x264-HiDt
Writing library : x264 core 120 r2164 da19765
Encoding settings : cabac=1 / ref=9 / deblock=1:-2:-2 / analyse=0x3:0x113 / me=tesa / subme=11 / psy=1 / psy_rd=0.95:0.00 / mixed_ref=1 / me_range=24 / chroma_me=1 / trellis=2 / 8x8dct=1 / cqm=0 / deadzone=21,11 / fast_pskip=0 / chroma_qp_offset=-2 / threads=12 / sliced_threads=0 / nr=0 / decimate=1 / interlaced=0 / bluray_compat=0 / constrained_intra=0 / bframes=6 / b_pyramid=2 / b_adapt=2 / b_bias=0 / direct=3 / weightb=1 / open_gop=0 / weightp=2 / keyint=250 / keyint_min=25 / scenecut=40 / intra_refresh=0 / rc=crf / mbtree=0 / crf=13.4 / qcomp=0.80 / qpmin=0 / qpmax=69 / qpstep=4 / ip_ratio=1.40 / pb_ratio=1.30 / aq=1:0.60
Language : English
Default : Yes
Forced : Yes

Audio #1
ID : 2
Format : AC-3
Format/Info : Audio Coding 3
Mode extension : CM (complete main)
Format settings, Endianness : Big
Codec ID : A_AC3
Duration : 1h 26mn
Bit rate mode : Constant
Bit rate : 640 Kbps
Channel(s) : 6 channels
Channel positions : Front: L C R, Side: L R, LFE
Sampling rate : 48.0 KHz
Bit depth : 16 bits
Compression mode : Lossy
Stream size : 398 MiB (9%)
Title : DD 5.1 @ 640 kbps - Dub, BD EUR
Language : Russian
Default : Yes
Forced : Yes

Audio #2
ID : 3
Format : AC-3
Format/Info : Audio Coding 3
Mode extension :
51175b813d30417a871c268975e254eb551102f7Франкенвини / Frankenweenie (Тим Бёртон, Mультфильм, ужасы, фантастика, комедия, семейный, 2012) [BDRip 720p, Дубляж, Оригинал (английский), Sub] Франкенвини / Frankenweenie (Тим Бёртон, Mультфильм, ужасы, фантастика, комедия, семейный, 2012) [BDRip 720p, Дубляж, Оригинал (английский), Sub] " />

Аплоадер: Админ, дата: 26-01-2013, 19:08, торрент скачан: 359 раз

Понравилась раздача? Посмотрите эти:
  • Франкенвини / Frankenweenie (Тим Бёртон, Мультфильм, ужасы, фантастика, ком ...
  • Франкенвини / Frankenweenie (Тим Бёртон, Мультфильм, ужасы, фантастика, ...
  • [3D] Франкенвини / Frankenweenie (Тим Бёртон, Mультфильм, ужасы, фантастика ...
  • Франкенвини / Frankenweenie (Тим Бёртон, Мультфильм, ужасы, фантастика, ком ...
  • Весенние надежды / Hope Springs (Дэвид Фрэнкел, Драма, мелодрама, комедия, ...
  • Толстяк на ринге / Here Comes the Boom (Фрэнк Корачи, Боевик, комедия, 201 ...
  • Черный дрозд / Deadfall (Штефан Руцовицки, Триллер, драма, криминал, 2012) ...
  • Франкенвини / Frankenweenie (Тим Бёртон, Мультфильм, ужасы, фантастика, ком ...
  • Франкенвини / Frankenweenie (Тим Бёртон, Мультфильм, ужасы, фантастика, ком ...
  • Франкенвини / Frankenweenie (Тим Бёртон, мультфильм, ужасы, фантастика, ком ...
  • [3D] Франкенвини 3D трейлер / Frankenweenie 3D trailer (Тим Бёртон, Мультфи ...
  • Проект X: Дорвались / Project X (Нима Нуризаде, комедия, 2012) [BDRip 720p, ...
  • Джок / Jock (Дункан МакНили, мультфильм, комедия, приключения, семейный, 20 ...
  • «Весёлые» каникулы / Get the Gringo (Адриан Грюнберг, Боевик, комедия, 2012 ...
  • Ворон / The Raven (Джеймс МакТиг, Триллер, детектив, 2012) [BDRip 720p, Дуб ...
  • Пираньи 3DD / Piranha 3DD (Джон Гулажер, ужасы, триллер, комедия, 2012) [BD ...
  • Красные огни / Red Lights (Родриго Кортес, Ужасы, триллер, драма, 2012) [BD ...
  • Рок на века / Rock of Ages (Адам Шенкман, Мюзикл, драма, мелодрама, комедия ...
  • Супер Майк / Magic Mike (Стивен Содерберг, Драма, комедия, 2012) [BDRip 720 ...
  • Цунами 3D / Bait (Кимбл Рендалл, Ужасы, боевик, триллер, 2011) [BDRip 720p ...
  • На Дороге / On The Road (Уолтер Саллес, Драма, приключения, 2012) [BDRip 72 ...
  • Явление / The Apparition (Тодд Линкольн, Ужасы, триллер, 2012) [BDRip 720p, ...
  • Странная жизнь Тимоти Грина / The Odd Life of Timothy Green (Питер Хеджес, ...
  • Франкенвини / Frankenweenie (Тим Бёртон, мультфильм, ужасы, фантастика, ком ...
  • [Трейлер] Франкенвини / Frankenweenie (Тим Бёртон, мультфильм, ужасы, фант ...
  • Информация
    Посетители, находящиеся в группе Гости, не могут оставлять комментарии к данной публикации.