вход на сайт

Имя пользователя :
Пароль :

Восстановление пароля Регистрация
Слова / The Words (Брайан Клагман, Ли Стернтал, Драма, мелодрама, 2012) [BDRip 1080p, Профессиональный (полное дублирование) + Оригинал (английский) + Sub]
Рейтинг:
(голосов: 1)



[img]{THEME}/images/logopost.png[/img]



• Слова / The Words [EXTENDED] •
«Theres more than one way to take a life.»

Год выпуска: 2012
Страна: США
Производство: Also Known As Pictures, Benaroya Pictures, Waterfall Media
Жанр: Драма, мелодрама

Режиссёр: Брайан Клагман, Ли Стернтал
В ролях: Брэдли Купер, Джереми Айронс, Оливия Уайлд, Зои Салдана, Деннис Куэйд, Брайан Клагман, Джон Ханна, Вито Филлипо, Майкл МакКин, Люсинда Дэвис

Перевод: Профессиональный (полное дублирование) + Оригинал (английский)
Субтитры: Русские + Английские

Описание: Рори Джэнсен — писатель, который наконец обретает долгожданную известность, но его роман-бестселлер оказывается написан другим человеком, которому он теперь должен заплатить высокую цену за украденные у него жизнь и работу.Дата премьеры (мир): 27 января 2012
Дата премьеры (РФ): 29 ноября 2012, «West»

Релиз от:

Качество: ВDRip 1080р |Сэмпл
Продолжительность: 01:42:41


Формат: MKV
Видео кодек: H.264
Аудио кодек: DTS
Видео:H.264, 1920x1038 (1,85:1), 23.976 fps, 15.5 Mbps, 0.324 bit/pixel
Аудио#1: 48 kHz/16-bit, DTS, 3/2 (L,C,R,l,r) + LFE ch, ~755.00 kbps avg | RUS
Аудио#2: 48 kHz/16-bit, DTS, 3/2 (L,C,R,l,r) + LFE ch, ~1510.00 kbps avg | ENG

"Mediainfo:" ▼TextGeneral
Format : Matroska
Format version : Version 2
File size : 12.7 GiB
Duration : 1h 42mn
Overall bit rate : 17.8 Mbps
Movie name : IRONCLUB
Encoded date : UTC 2013-01-23 19:27:43
Writing application : mkvmerge v4.9.1 (Ich will) сборка от Jul 11 2011 23:53:15
Writing library : libebml v1.2.1 + libmatroska v1.1.1

Video
ID : 1
Format : AVC
Format/Info : Advanced Video Codec
Format profile : [email protected]
Format settings, CABAC : Yes
Format settings, ReFrames : 4 frames
Codec ID : V_MPEG4/ISO/AVC
Duration : 1h 42mn
Bit rate : 15.5 Mbps
Width : 1 920 pixels
Height : 1 038 pixels
Display aspect ratio : 1.85:1
Frame rate : 23.976 fps
Color space : YUV
Chroma subsampling : 4:2:0
Bit depth : 8 bits
Scan type : Progressive
Bits/(Pixel*Frame) : 0.324
Stream size : 10.9 GiB (85%)
Title : The.Words.2012.1080p.Extended.BluRay.x264.DTS-HDChina
Writing library : x264 core 129 r2230+696+36 4446aa2 tMod+MixAQ [[email protected]:2:0 X86_64]
Encoding settings : cabac=1 / ref=4 / deblock=1:-3:-3 / analyse=0x3:0x113 / me=umh / subme=11 / psy=1 / fade_compensate=0.00 / psy_rd=1.10:0.00 / mixed_ref=1 / me_range=48 / chroma_me=1 / trellis=2 / 8x8dct=1 / cqm=0 / deadzone=21,11 / fast_pskip=0 / chroma_qp_offset=-2 / threads=18 / lookahead_threads=3 / sliced_threads=0 / nr=0 / decimate=0 / interlaced=0 / bluray_compat=0 / constrained_intra=0 / fgo=0 / bframes=8 / b_pyramid=2 / b_adapt=2 / b_bias=0 / direct=3 / weightb=1 / open_gop=0 / weightp=2 / keyint=240 / keyint_min=24 / scenecut=40 / intra_refresh=0 / rc_lookahead=240 / rc=2pass / mbtree=1 / bitrate=15500 / ratetol=1.0 / qcomp=0.70 / qpmin=0 / qpmax=69 / qpstep=4 / cplxblur=20.0 / qblur=0.5 / ip_ratio=1.10 / aq=4 / aq-strength=0.75 / aq-sensitivity=10.00 / aq-ifactor=1.00 / aq-pfactor=1.00 / aq-bfactor=1.00 / aq2=0
Language : English
Default : Yes
Forced : Yes

Audio #1
ID : 2
Format : DTS
Format/Info : Digital Theater Systems
Codec ID : A_DTS
Duration : 1h 42mn
Bit rate mode : Constant
Bit rate : 755 Kbps
Channel(s) : 6 channels
Channel positions : Front: L C R, Side: L R, LFE
Sampling rate : 48.0 KHz
Bit depth : 24 bits
Compression mode : Lossy
Stream size : 554 MiB (4%)
Title : DTS 5.1 @ 755 kbps - Dub, R5
Language : Russian
Default : Yes
Forced : Yes

Audio #2
ID : 3
Format : DTS
Format/Info : Digital Theater Systems
Codec ID : A_DTS
Duration : 1h 42mn
Bit rate mode : Constant
Bit rate : 1 510 Kbps
Channel(s) : 6 channels
Channel positions : Front: L C R, Side: L R, LFE
Sampling rate : 48.0 KHz
Bit depth : 16 bits
Compression mode : Lossy
Stream size : 1.08 GiB (8%)
Title : DTS 5.1 @ 1536 kbps
Language : English
Default : No
Forced : No

Text #1
ID : 4
Format : UTF-8
Codec ID : S_TEXT/UTF8
Codec ID/Info
50459f1de3d9a9efa40a41f41e8b4acf1705e2c6Слова / The Words (Брайан Клагман, Ли Стернтал, Драма, мелодрама, 2012) [BDRip 1080p, Профессиональный (полное дублирование) + Оригинал (английский) + Sub] Слова / The Words (Брайан Клагман, Ли Стернтал, Драма, мелодрама, 2012) [BDRip 1080p, Профессиональный (полное дублирование) + Оригинал (английский) + Sub] " />

Аплоадер: Админ, дата: 24-01-2013, 04:37, торрент скачан: 359 раз

Понравилась раздача? Посмотрите эти:
  • 42 / 42 (Брайан Хелгеленд, Драма, биография, спорт, 2013) [BDRip 720p, Проф ...
  • Жизнь Пи / Life Of Pi (Энг Ли, Драма, приключения, 2012) [BDRip 720p, Профе ...
  • Жизнь Пи / Life Of Pi (Энг Ли, Драма, приключения, 2012) [BDRip 1080p, Проф ...
  • [iPhone, iPod] Слова / The Words (Брайан Клагман, Драма, Мелодрама, 2012) [ ...
  • Хорошо быть тихоней / The Perks of Being a Wallflower (Стивен Чбоски, Драма ...
  • Экипаж / Flight (Роберт Земекис, Драма, 2012) [BDRip-AVC, Профессиональный ...
  • Слова [Расширенная версия] / The Words [Extended Cut] (Брайан Клагман, Ли С ...
  • Слова / The Words (Ли Стернтал, Драма, мелодрама, 2012) [Blu-ray [RUS] 1080 ...
  • Анна Каренина / Anna Karenina (Джо Райт, Драма, мелодрама, 2012) [BDRip 108 ...
  • Черный дрозд / Deadfall (Штефан Руцовицки, триллер, драма, криминал, 2012) ...
  • Хранитель времени / Hugo (Мартин Скорсезе, Драма, 2011) [BDRip-AVC, Професс ...
  • Слова / The Words [EXTENDED] (Ли Стернтал, Драма, мелодрама, 2012) [HDRip, ...
  • Слова / The Words [EXTENDED] (Ли Стернтал, Драма, мелодрама, 2012) [BDRip, ...
  • Слова / The Words [EXTENDED] (Брайан Клагман, Ли Стернтал, драма, мелодрама ...
  • Слова / The Words [EXTENDED] (Ли Стернтал, Драма, мелодрама, 2012) [HDRip-A ...
  • Слова / The Words [EXTENDED] (Ли Стернтал, Драма, мелодрама, 2012) [HDRip-A ...
  • Домашняя работа / The Art of Getting By (Гэвин Вьесен, драма, мелодрама, 20 ...
  • Хижина в лесу / The Cabin in the Woods (Дрю Годдард, Ужасы, фантастика, три ...
  • Супер Майк / Magic Mike (Стивен Содерберг, Драма, комедия, 2012) [BDRip 720 ...
  • Супер Майк / Magic Mike (Стивен Содерберг, Драма, комедия, 2012) [BDRip 108 ...
  • Дружинники / The Watch (Акива Шаффер, Фантастика, комедия, 2012) [BDRip 108 ...
  • Третий лишний / Ted (Сет МакФарлейн, Фэнтези, комедия, 2012) [BDRip 1080p, ...
  • Я, Алекс Кросс / Alex Cross (Роб Коэн, Боевик, триллер, криминал, детектив, ...
  • Слова / The Words [EXTENDED] (Ли Стернтал, Драма, мелодрама, 2012) [BDRip 7 ...
  • [Трейлер] Слова / The Words (Брайан Клагман, Ли Стернтал, драма, мелодрама) ...
  • Информация
    Посетители, находящиеся в группе Гости, не могут оставлять комментарии к данной публикации.