вход на сайт

Имя пользователя :
Пароль :

Восстановление пароля Регистрация
1812: Уланская баллада (Олег Фесенко, Приключения, 2012) [BDRip 720p, Не требуется]
Рейтинг:
(голосов: 1)



[img]{THEME}/images/logopost.png[/img]



1812: Уланская баллада
За любовь! За дружбу! За корону Российской империи!


Год выпуска: 2012
Страна: Россия
Производство: Централ Партнершип, Фонд кино
Жанр: Приключения

Режиссёр: Олег Фесенко
В ролях: Сергей Безруков, Антон Соколов, Анна Чиповская, Анатолий Белый, Станислав Дужников, Валерий Николаев, Алексей Макаров, Борис Клюев, Эрик Фратичелли, Гедиминас Адомайтис

Перевод: Не требуется
Субтитры: Отсутствуют

Описание: 1812 год. Накануне решающей битвы при Бородино тайный агент Наполеона похищает план сражения. Об этом становится известно Кутузову, и он посылает на перехват своих лучших улан. Путь их лежит в Польшу, где разворачивается бурный роман Наполеона с графиней Валевской...




Качество: BDRip 720p |Сэмпл
Продолжительность:01:38:44 час.


Формат: MKV
Видео кодек: x264
Аудио кодек: DTS
Видео: 1280x720 (16:9), 24.000 fps, x264 ~6 254 kbps avg, 0.283 bit/pixel
Аудио: 48 kHz/24-bit, DTS, 3/2 (L,C,R,l,r) + LFE ch, ~1510.00 kbps avg


Дата премьеры (мир): 1 ноября 2012
Дата премьеры (РФ): 1 ноября 2012, «Централ Партнершип»


MediaInfo| x264 ▼
x264 info ▼x264 [info]: frame I:1509 Avg QP:16.32 size:139276
x264 [info]: frame P:36800 Avg QP:17.40 size: 56185
x264 [info]: frame B:103872 Avg QP:19.28 size: 23771
x264 [info]: consecutive B-frames: 3.9% 4.5% 13.0% 34.8% 17.3% 22.0% 2.8% 0.8% 0.5% 0.2%

General
Unique ID : 223317046822328670257064841194270964663 (0xA8014C7B521AFDEC9D14F16169793BB7)
Complete name : 1812.Ulanskaja.ballada.2012.720p.BluRay.DTS.x264-IRONCLUB.mkv
Format : Matroska
Format version : Version 2
File size : 5.46 GiB
Duration : 1h 38mn
Overall bit rate : 7 922 Kbps
Movie name : IRONCLUB
Encoded date : UTC 2013-01-15 20:11:25
Writing application : mkvmerge v5.2.0 (I cant explain) built on Dec 18 2011 18:12:03
Writing library : libebml v1.2.3 + libmatroska v1.3.0

Video
ID : 1
Format : AVC
Format/Info : Advanced Video Codec
Format profile : [email protected]
Format settings, CABAC : Yes
Format settings, ReFrames : 9 frames
Codec ID : V_MPEG4/ISO/AVC
Duration : 1h 38mn
Bit rate : 6 254 Kbps
Width : 1 280 pixels
Height : 720 pixels
Display aspect ratio : 16:9
Frame rate : 24.000 fps
Color space : YUV
Chroma subsampling : 4:2:0
Bit depth : 8 bits
Scan type : Progressive
Bits/(Pixel*Frame) : 0.283
Stream size : 4.31 GiB (79%)
Title : 1812: Ulanskaja ballada 2012 720p BluRay DTS x264-IRONCLUB
Writing library : x264 core 129 r2245kMod bc13772
Encoding settings : cabac=1 / ref=9 / deblock=1:-3:-3 / analyse=0x3:0x113 / me=umh / subme=11 / psy=1 / fade_compensate=0.00 / psy_rd=1.15:0.00 / mixed_ref=1 / me_range=48 / chroma_me=1 / trellis=2 / 8x8dct=1 / cqm=0 / deadzone=21,11 / fast_pskip=0 / chroma_qp_offset=-2 / threads=12 / lookahead_threads=2 / sliced_threads=0 / nr=0 / decimate=1 / interlaced=0 / bluray_compat=0 / constrained_intra=0 / bframes=9 / b_pyramid=2 / b_adapt=2 / b_bias=0 / direct=3 / weightb=1 / open_gop=0 / weightp=2 / keyint=250 / keyint_min=24 / scenecut=40 / intra_refresh=0 / rc_lookahead=60 / rc=crf / mbtree=0 / crf=17.0000 / qcomp=0.70 / qpmin=0 / qpmax=69 / qpstep=4 / vbv_maxrate=50000 / vbv_bufsize=62500 / crf_max=0.0 / nal_hrd=none / ip_ratio=1.30 / pb_ratio=1.20 / aq=1:0.80
Language : Russian
Default : Yes
Forced : Yes

Audio
ID : 2
Format : DTS
Format/Info : Digital Theater Systems
Codec ID : A_DTS
Duration : 1h 38mn
Bit rate mode : Constant
Bit rate : 1 510 Kbps
Channel(s) : 6 channels
Channel positions : Front: L C R, Side: L R, LFE
Sampling rate : 48.0 KHz
Bit depth : 16 bits
Compression mode : Lossy
Stream size : 1.04 GiB (19%)
Title : DTS 5.1 @ 1536 kbps
Language : Russian
Default : Yes
Forced : Yes

Menu
00:00:00.000 : ru:00:00:00.000
00:07:50.500 : ru:00:07:50.500
00:16:11.000 : ru:00:16:11.000
00:20:41.875 : ru:00:20:41.875
00:28:39.000 : ru:00:28:39.000
00:36:24.708 : ru:00:36:24.708
00:45:07.541 : ru:00:45:07.541
00:57:15.625 : ru:00:57:15.625
01:04:44.250 : ru:01:04:
dbb8f5f358a23cfa5a36bc74bd78bcf4d7990d8b1812: Уланская баллада (Олег Фесенко, Приключения, 2012) [BDRip 720p, Не требуется] 1812: Уланская баллада (Олег Фесенко, Приключения, 2012) [BDRip 720p, Не требуется] " />

Аплоадер: Админ, дата: 16-01-2013, 03:18, торрент скачан: 359 раз

Понравилась раздача? Посмотрите эти:
  • Замуж на 2 дня / Un plan parfait (Паскаль Шомель, Мелодрама, комедия, прикл ...
  • Билет на Vegas (Гор Киракосян, Комедия, приключения, 2012) [BDRip 720p, Не ...
  • Марко Макако / Marco Macaco (Жан Рабек, Мультфильм, комедия, семейный, 2012 ...
  • Покорители Волн / Chasing Mavericks (Майкл Эптед, Кёртис Хэнсон, Драма, спо ...
  • 1812: Уланская баллада (Олег Фесенко, Приключения, 2012) [BDRip-AVC, Не тре ...
  • 1812: Уланская баллада (Олег Фесенко, Приключения, 2012) [BDRip-AVC, Не тре ...
  • 1812: Уланская баллада (Олег Фесенко, приключения, 2012) [HDRip-AVC, Не тре ...
  • Схватка / The Grey (Джо Карнахан, Боевик, 2012) [BDRip 720p, Профессиональн ...
  • Белый тигр (Карен Шахназаров, военный, 2012) [BDRip 720p, Не требуется]
  • Джок / Jock (Дункан МакНили, мультфильм, комедия, приключения, семейный, 20 ...
  • Матч (Андрей Малюков, Драма, спорт, 2012) [BDRip 720p, Не требуется]
  • Любовь С Препятствиями / Un Bonheur Narrive Jamais Seul (Джеймс Хат, Мелодр ...
  • 1812: Уланская баллада (Олег Фесенко, Приключения, 2012) [Blu-ray [RUS] 108 ...
  • С новым годом, мамы! (Сарик Андреасян, Артем Аксененко, Дмитрий Грачев, Ком ...
  • Джунгли (Александр Войтинский, мелодрама, комедия, приключения, 2012) [BDRi ...
  • 1812: Уланская баллада (Олег Фесенко, Приключения, 2012) [BDRip, Не требует ...
  • 1812: Уланская баллада (Олег Фесенко, Приключения, 2012) [BDRip, Не требует ...
  • 1812: Уланская баллада (Олег Фесенко, приключения, 2012) [DVDRip, Не требуе ...
  • 1812: Уланская баллада (Олег Фесенко, Приключения, 2012) [DVD9, Не требуетс ...
  • 1812: Уланская баллада (Олег Фесенко, приключения, 2012) [DVDRip, Не требуе ...
  • Информация
    Посетители, находящиеся в группе Гости, не могут оставлять комментарии к данной публикации.