вход на сайт

Имя пользователя :
Пароль :

Восстановление пароля Регистрация
Возлюбленные / Les bien-aimés (Кристоф Оноре, Драма, 2011) [BDRip 720p, Дубляж, Оригинал (английский), Sub]
Рейтинг:
(голосов: 1)



[img]{THEME}/images/logopost.png[/img]



Возлюбленные / Les bien-aimés
«Не вместе навсегда»


Год выпуска: 2011
Страна: Франция, Великобритания, Чехия
Производство: Canal+ [fr], Orange Cinéma Séries, Why Not Productions
Жанр: Драма

Режиссёр: Кристоф Оноре
В ролях:Кьяра Мастроянни, Катрин Денёв, Людивин Санье, Луи Гаррель, Милош Форман, Пол Шнайдер, Радивойе Буквич, Мишель Дельпеш, Омар Бен Селлем, Дастин Сегура-Суарес

Перевод: Дубляж, Оригинал (английский)
Субтитры: English

Описание: От Парижа 60-х годов до Лондона 21 века Мадлен и ее дочь Вера не прекращают появляться и исчезать из жизни своих любимых мужчин. Однако любить легко и непринужденно позволено далеко не во все времена. Как противостоять неумолимому ходу времени, которое влияет даже на самые глубокие чувства?

Релиз от:




Качество: BDRip 720p | Сэмпл
Продолжительность:02:18:39 час.


Формат: MKV
Видео кодек: x264
Аудио кодек: AC3, DTS
Видео: 1280x544 (2.35:1), 24 fps, x264 ~9 340 kbps avg, 0.559 bit/pixel
Аудио#1: 48 kHz, AC3 Dolby Digital, 3/2 (L,C,R,l,r) + LFE ch, ~448 kbps- (Дубляж)
Аудио#2: 48 kHz/24-bit, DTS, 3/2 (L,C,R,l,r) + LFE ch, ~1510.00 kbps avg - (Оригинал)

Дата премьеры (мир): 22 мая 2011
Дата премьеры (РФ): 22 ноября 2012, «Экспонента»

MediaInfo ▼

General
Complete name : Vozljublennye.2011.D.BDRip.720p.IRONCLUB.mkv
Format : Matroska
Format version : Version 2
File size : 10.9 GiB
Duration : 2h 18mn
Overall bit rate : 11.3 Mbps
Movie name : IRONCLUB
Encoded date : UTC 2012-12-18 19:10:47
Writing application : mkvmerge v5.2.0 (I cant explain) built on Dec 18 2011 18:12:03
Writing library : libebml v1.2.3 + libmatroska v1.3.0

Video
ID : 1
Format : AVC
Format/Info : Advanced Video Codec
Format profile : [email protected]
Format settings, CABAC : Yes
Format settings, ReFrames : 12 frames
Codec ID : V_MPEG4/ISO/AVC
Duration : 2h 18mn
Bit rate : 9 340 Kbps
Width : 1 280 pixels
Height : 544 pixels
Display aspect ratio : 2.35:1
Frame rate : 24.000 fps
Color space : YUV
Chroma subsampling : 4:2:0
Bit depth : 8 bits
Scan type : Progressive
Bits/(Pixel*Frame) : 0.559
Stream size : 8.82 GiB (81%)
Title : Les bien-aimes 2011 720p BluRay DTS x264-EA
Writing library : x264 core 125 r2208 d9d2288
Encoding settings : cabac=1 / ref=12 / deblock=1:-3:-3 / analyse=0x3:0x113 / me=umh / subme=11 / psy=1 / psy_rd=1.10:0.10 / mixed_ref=1 / me_range=32 / chroma_me=1 / trellis=2 / 8x8dct=1 / cqm=0 / deadzone=21,11 / fast_pskip=0 / chroma_qp_offset=-3 / threads=12 / lookahead_threads=2 / sliced_threads=0 / nr=0 / decimate=0 / interlaced=0 / bluray_compat=0 / constrained_intra=0 / bframes=10 / b_pyramid=2 / b_adapt=2 / b_bias=0 / direct=3 / weightb=1 / open_gop=0 / weightp=2 / keyint=230 / keyint_min=23 / scenecut=40 / intra_refresh=0 / rc=2pass / mbtree=0 / bitrate=9340 / ratetol=1.0 / qcomp=0.75 / qpmin=8 / qpmax=69 / qpstep=4 / cplxblur=20.0 / qblur=0.5 / ip_ratio=1.40 / pb_ratio=1.20 / aq=1:0.80
Language : French
Default : Yes
Forced : Yes
Color primaries : BT.709-5, BT.1361, IEC 61966-2-4, SMPTE RP177
Transfer characteristics : BT.709-5, BT.1361
Matrix coefficients : BT.709-5, BT.1361, IEC 61966-2-4 709, SMPTE RP177

Audio #1
ID : 2
Format : AC-3
Format/Info : Audio Coding 3
Mode extension : CM (complete main)
Format settings, Endianness : Big
Codec ID : A_AC3
Duration : 2h 18mn
Bit rate mode : Constant
Bit rate : 448 Kbps
Channel(s) : 6 channels
Channel positions : Front: L C R, Side: L R, LFE
Sampling rate : 48.0 KHz
Bit depth : 16 bits
Compression mode : Lossy
Stream size : 444 MiB (4%)
Title : DD 5.1 @ 448 kbps - Dub, R5
Language : Russian
Default : Yes
Forced : Yes

Audio #2
ID : 3
Format : DTS
Format/Info : Digital Theater Systems
Codec ID : A_DTS
Duration : 2h 18mn
Bit rate mode : Constant
Bit rate : 1 510 Kbps
Channel(s) : 6 channels
Channel positions : Front: L C R, Side: L R, LFE
Sampli
7ecd21982e163acf5ad5346e6c87a11717e0fb94Возлюбленные / Les bien-aimés (Кристоф Оноре, Драма, 2011) [BDRip 720p, Дубляж, Оригинал (английский), Sub] Возлюбленные / Les bien-aimés (Кристоф Оноре, Драма, 2011) [BDRip 720p, Дубляж, Оригинал (английский), Sub] " />

Аплоадер: Админ, дата: 19-12-2012, 08:08, торрент скачан: 359 раз

Понравилась раздача? Посмотрите эти:
  • Жизнь Пи / Life Of Pi (Энг Ли, Драма, приключения, 2012) [BDRip 720p, Профе ...
  • Весенние надежды / Hope Springs (Дэвид Фрэнкел, Драма, мелодрама, комедия, ...
  • Толстяк на ринге / Here Comes the Boom (Фрэнк Корачи, Боевик, комедия, 201 ...
  • Заложница 2 [Театральная версия] / Taken 2 [Theatrical Cut] (Оливье Мегатон ...
  • Хорошо быть тихоней / The Perks of Being a Wallflower (Стивен Чбоски, Драма ...
  • Черный дрозд / Deadfall (Штефан Руцовицки, Триллер, драма, криминал, 2012) ...
  • Возлюбленные / Les bien-aimés (Кристоф Оноре, Драма, 2011) [HDRip-AVC, Дубл ...
  • Закон доблести / Act of Valor (Майк МакКой, Скотт Во, боевик, триллер, прик ...
  • Джок / Jock (Дункан МакНили, мультфильм, комедия, приключения, семейный, 20 ...
  • «Весёлые» каникулы / Get the Gringo (Адриан Грюнберг, Боевик, комедия, 2012 ...
  • Откровения / Elles (Малгожата Шумовска, Драма, 2011) [BDRip 720p, Профессио ...
  • Ворон / The Raven (Джеймс МакТиг, Триллер, детектив, 2012) [BDRip 720p, Дуб ...
  • Белоснежка и охотник [Театральная версия] / Snow White and the Huntsman [Th ...
  • Красные огни / Red Lights (Родриго Кортес, Ужасы, триллер, драма, 2012) [BD ...
  • Медальон / Stolen (Саймон Уэст, Боевик, триллер, 2012) [BDRip 720p, Дубляж, ...
  • Рок на века / Rock of Ages (Адам Шенкман, Мюзикл, драма, мелодрама, комедия ...
  • Супер Майк / Magic Mike (Стивен Содерберг, Драма, комедия, 2012) [BDRip 720 ...
  • Москва 2017 / Branded (Джейми Брэдшоу, Александр Дулерайн, фантастика, трил ...
  • Цунами 3D / Bait (Кимбл Рендалл, Ужасы, боевик, триллер, 2011) [BDRip 720p ...
  • Третий лишний / Ted (Сет МакФарлейн, Фэнтези, комедия, 2012) [BDRip 720p, Д ...
  • На Дороге / On The Road (Уолтер Саллес, Драма, приключения, 2012) [BDRip 72 ...
  • Патруль / End of Watch (Дэвид Эйр, Триллер, драма, криминал, 2012) [BDRip 7 ...
  • Слова / The Words [EXTENDED] (Ли Стернтал, Драма, мелодрама, 2012) [BDRip 7 ...
  • Возлюбленные / Les bien-aimés (Кристоф Оноре, Драма, 2011) [HDRip, Дубляж]
  • Возлюбленные / Les bien-aimés (Кристоф Оноре, Драма, 2011) [HDRip, Дубляж]
  • Информация
    Посетители, находящиеся в группе Гости, не могут оставлять комментарии к данной публикации.