вход на сайт

Имя пользователя :
Пароль :

Восстановление пароля Регистрация
Феи: Тайна Зимнего Леса / Secret Of The Wings (Роберт Ганнавей, Пегги Холмс, Мультфильм, фэнтези, семейный, 2012) [BDRip 1080p, Дубляж, Оригинал (английский), Sub]
Рейтинг:
(голосов: 1)



[img]{THEME}/images/logopost.png[/img]



Феи: Тайна Зимнего Леса / Secret Of The Wings
«Два мира. Одна тайна»


Год выпуска: 2012
Страна: США
Производство: DisneyToon Studios, Walt Disney Pictures
Жанр: Мультфильм, фэнтези, семейный

Режиссёр: Роберт Ганнавей, Пегги Холмс
В ролях: Тимоти Далтон, Люси Хейл, Меган Хилти, Анжелика Хьюстон, Мэтт Лантер, Джесси МакКартни, Мэй Уитман, Люси Лью, Рэйвен, Дебби Райан

Перевод: Дубляж, Оригинал (английский)
Субтитры:English [Full, SDH]

Описание: Динь-Динь и ее подруги всегда боялись пересекать границу с Зимним лесом, ведь существует поверье, что там очень опасно. В один прекрасный день Динь-Динь, сгорая от любопытства, подходит вплотную к лесу, и ее крылья неожиданно начинают блестеть и переливаться. Завороженная Динь, желая узнать тайну волшебных крыльев, кутается в теплое пальто и отправляется в глубь таинственного леса, где ее ждет неожиданное открытие…



Качество: BDRip 1080p [HDMaNiAcS] | Сэмпл
Продолжительность:01:15:03 час.


Формат: MKV
Видео кодек: x264
Аудио кодек: AC3, DTS
Видео: 1920x1080 (16:9), 23.976 fps, x264~12.0 mb/s, 0.241 bit/pixel
Аудио#1: 48 kHz, AC3 Dolby Digital, 3/2 (L,C,R,l,r) + LFE ch, ~640 kbps - (Дубляж)
Аудио#2: 48 kHz/24-bit, DTS, 3/2 (L,C,R,l,r) + LFE ch, ~1510.00 kbps avg - (Оригинал)

Дата премьеры (мир): 16 августа 2012
Дата премьеры (РФ): 29 ноября 2012, «WDSSPR»

MediaInfo ▼General
Unique ID : 223925364184112905998501309669403301050 (0xA87674D7E0265158BF12323DC2B894BA)
Complete name : Fei.tayna.zimnego.lesa.2012.D.BDRip.1080p.mkv
Format : Matroska
Format version : Version 2
File size : 7.42 GiB
Duration : 1h 15mn
Overall bit rate : 14.2 Mbps
Encoded date : UTC 2012-12-14 18:02:34
Writing application : mkvmerge v5.2.0 (I cant explain) built on Dec 18 2011 18:12:03
Writing library : libebml v1.2.3 + libmatroska v1.3.0

Video
ID : 1
Format : AVC
Format/Info : Advanced Video Codec
Format profile : [email protected]
Format settings, CABAC : Yes
Format settings, ReFrames : 4 frames
Codec ID : V_MPEG4/ISO/AVC
Duration : 1h 15mn
Bit rate : 12.0 Mbps
Width : 1 920 pixels
Height : 1 080 pixels
Display aspect ratio : 16:9
Frame rate : 23.976 fps
Color space : YUV
Chroma subsampling : 4:2:0
Bit depth : 8 bits
Scan type : Progressive
Bits/(Pixel*Frame) : 0.241
Stream size : 6.15 GiB (83%)
Title : Tinker.Bell.Secret.of.the.Wings.2012.1080p.BluRay.DTS.x264-HDMaNiAcS
Writing library : x264 core 128 r2216 198a7ea
Encoding settings : cabac=1 / ref=4 / deblock=1:-1:-1 / analyse=0x3:0x113 / me=tesa / subme=11 / psy=1 / psy_rd=0.65:0.00 / mixed_ref=1 / me_range=24 / chroma_me=1 / trellis=2 / 8x8dct=1 / cqm=0 / deadzone=21,11 / fast_pskip=1 / chroma_qp_offset=-2 / threads=12 / lookahead_threads=2 / sliced_threads=0 / nr=0 / decimate=1 / interlaced=0 / bluray_compat=0 / constrained_intra=0 / bframes=8 / b_pyramid=2 / b_adapt=2 / b_bias=0 / direct=3 / weightb=1 / open_gop=0 / weightp=2 / keyint=240 / keyint_min=23 / scenecut=40 / intra_refresh=0 / rc=2pass / mbtree=0 / bitrate=12000 / ratetol=1.0 / qcomp=0.65 / qpmin=10 / qpmax=69 / qpstep=4 / cplxblur=20.0 / qblur=0.5 / ip_ratio=1.40 / pb_ratio=1.30 / aq=2:1.05
Language : English
Default : Yes
Forced : Yes

Audio #1
ID : 2
Format : AC-3
Format/Info : Audio Coding 3
Mode extension : CM (complete main)
Format settings, Endianness : Big
Codec ID : A_AC3
Duration : 1h 15mn
Bit rate mode : Constant
Bit rate : 640 Kbps
Channel(s) : 6 channels
Channel positions : Front: L C R, Side: L R, LFE
Sampling rate : 48.0 KHz
Bit depth : 16 bits
Compression mode : Lossy
Stream size : 344 MiB (5%)
Title : DD 5.1 @ 640 kbps - Dub, BD EUR
Language : Russian
Default : Yes
Forced : Yes

Audio #2
ID : 3
Format : DTS
Format/Info : Digital Theater Systems
Codec ID : A_DTS
Duration : 1h 15mn
Bit rate mode : Constant
Bit rate : 1 510 Kbps
Channel(s) : 6 channels
Channel positions : Front: L C R, Side: L R, LFE
Sampling rate : 48.0 KHz
Bit depth : 24 bits
Compression mode
b755a98e63adad2a3f451e9b3ecbaaef0cf67c96Феи: Тайна Зимнего Леса / Secret Of The Wings (Роберт Ганнавей, Пегги Холмс, Мультфильм, фэнтези, семейный, 2012) [BDRip 1080p, Дубляж, Оригинал (английский), Sub] Феи: Тайна Зимнего Леса / Secret Of The Wings (Роберт Ганнавей, Пегги Холмс, Мультфильм, фэнтези, семейный, 2012) [BDRip 1080p, Дубляж, Оригинал (английский), Sub] " />

Аплоадер: Админ, дата: 15-12-2012, 01:16, торрент скачан: 359 раз

Понравилась раздача? Посмотрите эти:
  • Жизнь Пи / Life Of Pi (Энг Ли, Драма, приключения, 2012) [BDRip 1080p, Проф ...
  • [3D] Феи: Тайна зимнего леса / Secret of the Wings (Роберт Ганнавей, Пегги ...
  • Толстяк на ринге / Here Comes the Boom (Фрэнк Корачи, Боевик, комедия, 201 ...
  • Толстяк на ринге / Here Comes the Boom (Фрэнк Корачи, Боевик, комедия, 201 ...
  • Анна Каренина / Anna Karenina (Джо Райт, Драма, мелодрама, 2012) [BDRip 108 ...
  • Феи: Тайна Зимнего Леса / Secret Of The Wings (Роберт Ганнавей, Пегги Холмс ...
  • Феи: Тайна Зимнего Леса / Secret Of The Wings (Роберт Ганнавей, Пегги Холмс ...
  • Феи: Тайна Зимнего Леса / Secret Of The Wings (Роберт Ганнавей, Пегги Холмс ...
  • [3D] Феи: Тайна зимнего леса 3D трейлер / Secret of the Wings 3D trailer (Р ...
  • [3D] Феи: Тайна зимнего леса / Secret of the Wings (Роберт Ганнавей, Пегги ...
  • Феи: Потерянное сокровище / Tinker Bell and the Lost Treasur (Клэй Холл, му ...
  • Другой мир: Пробуждение / Underworld: Awakening (Монс Морлинд, Бьёрн Стейн, ...
  • Лоракс / Dr. Seuss The Lorax (Крис Рено, Кайл Балда, Мультфильм, фэнтези, с ...
  • Ворон / The Raven (Джеймс МакТиг, Триллер, детектив, 2012) [BDRip 720p, Дуб ...
  • Хижина в лесу / The Cabin in the Woods (Дрю Годдард, Ужасы, фантастика, три ...
  • Красные огни / Red Lights (Родриго Кортес, Ужасы, триллер, драма, 2012) [BD ...
  • Белоснежка и охотник [Театральная версия] / Snow White and the Huntsman [Th ...
  • Супер Майк / Magic Mike (Стивен Содерберг, Драма, комедия, 2012) [BDRip 108 ...
  • Третий лишний / Ted (Сет МакФарлейн, Фэнтези, комедия, 2012) [BDRip 1080p, ...
  • На Дороге / On The Road (Уолтер Саллес, Драма, приключения, 2012) [BDRip 10 ...
  • Странная жизнь Тимоти Грина / The Odd Life of Timothy Green (Питер Хеджес, ...
  • Эволюция Борна / The Bourne Legacy (Тони Гилрой, Боевик, триллер, детектив, ...
  • Феи: Тайна Зимнего Леса / Secret Of The Wings (Роберт Ганнавей, Пегги Холмс ...
  • Феи: Тайна Зимнего Леса / Secret Of The Wings (Роберт Ганнавей, Пегги Холмс ...
  • Феи: Тайна Зимнего Леса / Secret Of The Wings (Роберт Ганнавей, Пегги Холмс ...
  • Информация
    Посетители, находящиеся в группе Гости, не могут оставлять комментарии к данной публикации.