вход на сайт

Имя пользователя :
Пароль :

Восстановление пароля Регистрация
Оборотень: Зверь среди нас / Werewolf: The Beast Among Us (Луи Морно, ужасы, триллер, 2012) [BDRip 720p, Профессиональный (дублированный), Оригинал + Субтитры ]
Рейтинг:
(голосов: 1)



[img]{THEME}/images/logopost.png[/img]



Оборотень: Зверь среди нас / Werewolf: The Beast Among Us

Год выпуска: 2012
Страна: США
Производство: Universal 1440 Entertainment
Жанр: Ужасы, триллер

Режиссёр: Луи Морно
В ролях: Стивен Бауэр, Эд Куинн, Ниа Пиплз, Стивен Ри, Золтан Бутуч, Рэйчел ДиПилло, Ана Улару, Адам Кроусделл, Гай Уилсон, Разван Георгиу

Перевод: Дублированный + Оригинал (English)
Субтитры:Russian [Full, Forced], English

Описание: Действие фильма разворачивается в небольшой деревушке девятнадцатого века. Молодой человек, изучающий врачебное дело под руководстом местного доктора, решает вступить в ряды охотников за оборотнями, когда жители деревни начинают гибнуть один за другим от лап неведомого зверя. Кто он, этот монстр? Один из жителей деревни или нечто совершенно неведомое? Человек днем, чудовище ночью.



Релиз от:


Качество: BDRip 720p [EbP]
Продолжительность:01:33:23

Формат: MKV
Главы:Сохранены оригинальные чаптеры как на Blu-Ray
Видео кодек: V_MPEG4
Аудио кодек: (AC3, DTS)
Видео: 1280x720 (16:9) at 23.976 fps,V_MPEG4 ~ 5600 kbps avg, 0.253 bit/pix
Аудио: Russian: 48 kHz, АС3, 3/2 (L,C,R,l,r) + LFE ch, ~384.00 kbps avg |Дубляж|
Аудио: English: 48 kHz, DTS, 3/2 (L,C,R,l,r) + LFE ch, ~ 1 510.00 kbps avg

сэмпл
MediaInfo ▼
General
Unique ID : 245342641112646860316014286190517565640 (0xB893461F51A8DC78BE9FD73175EE38C8)
Complete name : D:Oboroten.Zver.sredi.nas.2012.D.BDRip.720p
Format : Matroska
Format version : Version 2
File size : 4.89 GiB
Duration : 1h 33mn
Overall bit rate : 7 494 Kbps
Movie name : IRONCLUB
Encoded date : UTC 2012-12-12 16:59:28
Writing application : mkvmerge v5.2.0 (I cant explain) built on Dec 18 2011 18:12:03
Writing library : libebml v1.2.3 + libmatroska v1.3.0

Video
ID : 1
Format : AVC
Format/Info : Advanced Video Codec
Format profile : [email protected]
Format settings, CABAC : Yes
Format settings, ReFrames : 9 frames
Codec ID : V_MPEG4/ISO/AVC
Duration : 1h 33mn
Bit rate : 5 600 Kbps
Width : 1 280 pixels
Height : 720 pixels
Display aspect ratio : 16:9
Frame rate : 23.976 fps
Color space : YUV
Chroma subsampling : 4:2:0
Bit depth : 8 bits
Scan type : Progressive
Bits/(Pixel*Frame) : 0.253
Stream size : 3.56 GiB (73%)
Title : Werewolf.The.Beast.Among.Us.2012.720p.BluRay.DTS.x264-EbP
Writing library : x264 core 128 r2216 198a7ea
Encoding settings : cabac=1 / ref=9 / deblock=1:-3:-3 / analyse=0x3:0x113 / me=tesa / subme=11 / psy=1 / psy_rd=1.05:0.00 / mixed_ref=1 / me_range=16 / chroma_me=1 / trellis=2 / 8x8dct=1 / cqm=0 / deadzone=21,11 / fast_pskip=0 / chroma_qp_offset=-2 / threads=12 / lookahead_threads=2 / sliced_threads=0 / nr=0 / decimate=0 / interlaced=0 / bluray_compat=0 / constrained_intra=0 / bframes=8 / b_pyramid=2 / b_adapt=2 / b_bias=0 / direct=3 / weightb=1 / open_gop=0 / weightp=2 / keyint=250 / keyint_min=23 / scenecut=40 / intra_refresh=0 / rc=2pass / mbtree=0 / bitrate=5600 / ratetol=1.0 / qcomp=0.60 / qpmin=0 / qpmax=69 / qpstep=4 / cplxblur=20.0 / qblur=0.5 / ip_ratio=1.40 / pb_ratio=1.30 / aq=1:0.60
Language : English
Default : Yes
Forced : Yes

Audio #1
ID : 2
Format : AC-3
Format/Info : Audio Coding 3
Mode extension : CM (complete main)
Format settings, Endianness : Big
Codec ID : A_AC3
Duration : 1h 33mn
Bit rate mode : Constant
Bit rate : 384 Kbps
Channel(s) : 6 channels
Channel positions : Front: L C R, Side: L R, LFE
Sampling rate : 48.0 KHz
Bit depth : 16 bits
Compression mode : Lossy
Stream size : 257 MiB (5%)
Title : DD 5.1 @ 384 kbps - Dub, R5
Language : Russian
Default : Yes
Forced : Yes

Audio #2
ID : 3
Format : DTS
Format/Info : Digital Theater Systems
Codec ID : A_DTS
Duration : 1h 33mn
Bit rate mode : Constant
Bit rate : 1 510 Kbps
Channel(s) : 6 channels
Channel positions : Front: L C R, Side: L R, LFE
Sampling rate : 48.0 KHz
Bit depth : 24 bits
Compression mode : Lossy
Stream size : 1 009 MiB (20%)
db96ef79c3b3fa4bd71ec7076ccd526fa6580753Оборотень: Зверь среди нас / Werewolf: The Beast Among Us (Луи Морно, ужасы, триллер, 2012) [BDRip 720p, Профессиональный (дублированный), Оригинал + Субтитры ] Оборотень: Зверь среди нас / Werewolf: The Beast Among Us (Луи Морно, ужасы, триллер, 2012) [BDRip 720p, Профессиональный (дублированный), Оригинал + Субтитры ] " />

Аплоадер: Админ, дата: 13-12-2012, 11:10, торрент скачан: 359 раз

Понравилась раздача? Посмотрите эти:
  • Пастырь / Priest (Скотт Чарльз Стюарт, ужасы, фантастика, боевик, триллер, ...
  • Четвертый вид / The Fourth Kind (Олатунде Осунсанми, ужасы, фантастика, 200 ...
  • Цель Номер Один / Zero Dark Thirty (Кэтрин Бигелоу, Триллер, драма, история ...
  • Жизнь Пи / Life Of Pi (Энг Ли, Драма, приключения, 2012) [BDRip 720p, Профе ...
  • Суррогат / The Sessions (Бен Луин, драма, 2012) [BDRip 720p, Профессиональн ...
  • Черный дрозд / Deadfall (Штефан Руцовицки, Триллер, драма, криминал, 2012) ...
  • Военные Игры / War Games: At The End Of The Day ( Козимо Алема, триллер, у ...
  • [ENG] Оборотень: Зверь среди нас / Werewolf: The Beast Among Us (Луи Морно ...
  • Оборотень: Зверь среди нас / Werewolf: The Beast Among Us (Луи Морно, ужасы ...
  • Оборотень: Зверь среди нас / Werewolf: The Beast Among Us (Луи Морно, ужасы ...
  • Оборотень: Зверь среди нас / Werewolf: The Beast Among Us (Луи Морно, ужасы ...
  • Экстрасенс / The Awakening (Ник Мерфи, ужасы, триллер, 2011) [BDRip 720p, Д ...
  • Мачо и ботан / 21 Jump Street (Фил Лорд, Крис Миллер, боевик, комедия, 2012 ...
  • «Весёлые» каникулы / Get the Gringo (Адриан Грюнберг, Боевик, комедия, 2012 ...
  • Ворон / The Raven (Джеймс МакТиг, Триллер, детектив, 2012) [BDRip 720p, Дуб ...
  • Пираньи 3DD / Piranha 3DD (Джон Гулажер, ужасы, триллер, комедия, 2012) [BD ...
  • Семь футов / Seven Below (Кевин Каррауэй, Ужасы, триллер, 2012) [BDRip 720p ...
  • Красные огни / Red Lights (Родриго Кортес, Ужасы, триллер, драма, 2012) [BD ...
  • Рок на века / Rock of Ages (Адам Шенкман, Мюзикл, драма, мелодрама, комедия ...
  • Супер Майк / Magic Mike (Стивен Содерберг, Драма, комедия, 2012) [BDRip 720 ...
  • Цунами 3D / Bait (Кимбл Рендалл, Ужасы, боевик, триллер, 2011) [BDRip 720p ...
  • Явление / The Apparition (Тодд Линкольн, Ужасы, триллер, 2012) [BDRip 720p, ...
  • Коллекционер 2 / The Collection (Маркус Данстэн, ужасы, боевик, триллер, 20 ...
  • Оборотень: Зверь среди нас / Werewolf: The Beast Among Us (Луи Морно, ужасы ...
  • Оборотень: Зверь среди нас / Werewolf: The Beast Among Us (Луи Морно, Ужас ...
  • Информация
    Посетители, находящиеся в группе Гости, не могут оставлять комментарии к данной публикации.