вход на сайт

Имя пользователя :
Пароль :

Восстановление пароля Регистрация
Особо опасны / Savages [UNRATED] (Оливер Стоун, Триллер, драма, криминал, 2012) [BDRip 720p, Авторский (одноголосый, закадровый), Оригинал, Sub]
Рейтинг:
(голосов: 1)



[img]{THEME}/images/logopost.png[/img]



Особо опасны / Savages[UNRATED]
«Молодые, красивые, дерзкие»


Год выпуска: 2012
Страна: США
Производство: Ixtlan Corporation, Onda Entertainment, Relativity Media
Жанр: Триллер, драма, криминал

Режиссёр: Оливер Стоун
В ролях: Тейлор Китч, Блейк Лайвли, Аарон Тейлор-Джонсон, Джон Траволта, Бенисио Дель Торо, Сальма Хайек, Эмиль Хирш, Демиан Бишир, Антонио Джарамилло, Хоакин Косио

Перевод: Авторский (одноголосый, закадровый) А. Дасевич по переводу ak79, без цензуры, Оригинал (английский)
Субтитры: Русские, английские

Описание: Молодые миллионеры Бен и Чон ведут дела на побережье Калифорнии. Бен - выдающийся ботаник и талантливый бизнесмен, Чон - мастер возвращения долгов и борьбы с конкурентами. В их работе много сложных моментов, ведь они выращивают лучшую в мире траву. Особо серьезные проблемы решает знакомый агент ФБР.

Но с одной не сможет помочь даже он. Сверхприбыльным бизнесом заинтересовался мексиканский картель. Его возглавляет прекрасная Елена, и она нашла главную слабость друзей - и Бен, и Чон принадлежат одной девушке. Ради прелестной О. они готовы на все. Любовь делает нас особо опасными.



Качество: BDRip 720p | Сэмпл
Продолжительность:02:21:10 час.

Формат: MKV
Видео кодек: AVC
Аудио кодек: DTS
Видео: 1280x534 (2.40:1), 23.976 fps, AVC ~9800 kbps avg, 0.60 bit/pixel
Аудио #1: 48 kHz, DTS, 2/0 (L,R) ch, ~1510.00 kbps avg | Авторский (одноголосый, закадровый) А. Дасевич
Аудио #1: 48 kHz, DTS, 2/0 (L,R) ch, ~1510.00 kbps avg | Оригинал (английский)

Дата премьеры (мир): 25 июня 2012
Дата премьеры (РФ): 13 сентября 2012, «UPI»

"MediaInfo" ▼General
Complete name : E:...Savages.2012.UNRATED.720p.BluRay.x264.DTS.Rus.VO.Eng-HiDt.mkv
Format : Matroska
Format version : Version 2
File size : 12.9 GiB
Duration : 2h 21mn
Overall bit rate : 13.0 Mbps
Movie name : Savages.2012.UNRATED.720p.BluRay.x264.DTS.Rus.VO.Eng-HiDt
Encoded date : UTC 2012-12-01 03:46:37
Writing application : mkvmerge v5.6.0 (Kenya Kane) built on May 27 2012 16:44:04
Writing library : libebml v1.2.3 + libmatroska v1.3.0

Video
ID : 1
Format : AVC
Format/Info : Advanced Video Codec
Format profile : [email protected]
Format settings, CABAC : Yes
Format settings, ReFrames : 12 frames
Codec ID : V_MPEG4/ISO/AVC
Duration : 2h 21mn
Bit rate : 9 759 Kbps
Width : 1 280 pixels
Height : 534 pixels
Display aspect ratio : 2.40:1
Frame rate mode : Constant
Frame rate : 23.976 fps
Color space : YUV
Chroma subsampling : 4:2:0
Bit depth : 8 bits
Scan type : Progressive
Bits/(Pixel*Frame) : 0.595
Stream size : 9.62 GiB (75%)
Title : HiDt
Writing library : x264 core 120 r2164 da19765
Encoding settings : cabac=1 / ref=12 / deblock=1:-3:-3 / analyse=0x3:0x113 / me=tesa / subme=11 / psy=1 / psy_rd=1.00:0.00 / mixed_ref=1 / me_range=64 / chroma_me=1 / trellis=2 / 8x8dct=1 / cqm=0 / deadzone=21,11 / fast_pskip=0 / chroma_qp_offset=-2 / threads=12 / sliced_threads=0 / nr=0 / decimate=1 / interlaced=0 / bluray_compat=0 / constrained_intra=0 / bframes=6 / b_pyramid=2 / b_adapt=2 / b_bias=0 / direct=3 / weightb=1 / open_gop=0 / weightp=2 / keyint=250 / keyint_min=25 / scenecut=40 / intra_refresh=0 / rc=crf / mbtree=0 / crf=16.0 / qcomp=0.65 / qpmin=0 / qpmax=49 / qpstep=4 / ip_ratio=1.40 / pb_ratio=1.30 / aq=1:0.90
Language : English
Default : No
Forced : No

Audio #1
ID : 2
Format : DTS
Format/Info : Digital Theater Systems
Codec ID : A_DTS
Duration : 2h 21mn
Bit rate mode : Constant
Bit rate : 1 510 Kbps
Channel(s) : 6 channels
Channel positions : Front: L C R, Side: L R, LFE
Sampling rate : 48.0 KHz
Bit depth : 24 bits
Compression mode : Lossy
Stream size : 1.49 GiB (12%)
Title : VO Dasevich
Language : Russian
Default : Yes
Forced : No

Audio #2
ID : 3
Format : DTS
Format/Info : Digital Theater Systems
Codec ID : A_DTS
Duration : 2h 21mn
Bit rate mode : Constant
Bit rate : 1 510 Kbps
Channel(s) : 6 channels
Channel positions : Front: L C R, Side: L R, LFE
Sampling rate :
b9daf70a9c163dcb7c4ac76e78a1b5da417f69b7Особо опасны / Savages [UNRATED] (Оливер Стоун, Триллер, драма, криминал, 2012) [BDRip 720p, Авторский (одноголосый, закадровый), Оригинал, Sub] Особо опасны / Savages [UNRATED] (Оливер Стоун, Триллер, драма, криминал, 2012) [BDRip 720p, Авторский (одноголосый, закадровый), Оригинал, Sub] " />

Аплоадер: Админ, дата: 10-12-2012, 23:26, торрент скачан: 359 раз

Понравилась раздача? Посмотрите эти:
  • Паркер / Parker (Тейлор Хэкфорд, Боевик, триллер, криминал, 2013) [BDRip 7 ...
  • Особо опасны / Savages (Оливер Стоун, триллер, драма, криминал, 2012) [BDR ...
  • Особо опасны / Savages (Оливер Стоун, триллер, драма, криминал, 2012) [BDRi ...
  • Особо опасны / Savages (Оливер Стоун, триллер, драма, криминал, 2012) [BDRi ...
  • Любимые / The Loved Ones (Шон Бирн, ужасы, триллер, драма, 2009) [BDRip-AVC ...
  • Особо опасны / Savages [UNRATED] (Оливер Стоун, триллер, драма, криминал, 2 ...
  • Особо опасны / Savages [UNRATED] (Оливер Стоун, Триллер, драма, криминал, 2 ...
  • Особо опасны / Savages (Оливер Стоун, триллер, драма, криминал, 2012) [HDRi ...
  • Особо опасны / Savages [UNRATED] (Оливер Стоун, триллер, драма, криминал, 2 ...
  • Особо опасны / Savages [UNRATED] (Оливер Стоун, Триллер, драма, криминал, 2 ...
  • Особо опасны / Savages [UNRATED] (Оливер Стоун, Триллер, драма, криминал, 2 ...
  • Особо опасны / Savages [UNRATED] (Оливер Стоун, Триллер, драма, криминал, 2 ...
  • Особо опасны / Savages [UNRATED] (Оливер Стоун, триллер, драма, криминал, 2 ...
  • Приемыш / Foster (Джонатан Ньюман, Драма, Комедия, Семейный, 2011) [BDRip 7 ...
  • Напролом / Lockout [UNRATED] (Джеймс Мэтер, Стивен Ст. Леджер, Фантастика, ...
  • Ворон / The Raven (Джеймс МакТиг, Триллер, детектив, 2012) [BDRip 720p, Дуб ...
  • Особо опасны / Savages [UNRATED] (Оливер Стоун, Триллер, драма, криминал, 2 ...
  • Особо опасны / Savages [UNRATED] (Оливер Стоун, Триллер, драма, криминал, 2 ...
  • Особо опасны / Savages [UNRATED] (Оливер Стоун, Триллер, драма, криминал, 2 ...
  • Особо опасны | Расширенная версия / Savages | Unrated Cut (Оливер Стоун, Тр ...
  • Особо опасны / Savages [UNRATED] (Оливер Стоун, триллер, драма, криминал, 2 ...
  • Особо опасны / Savages [UNRATED] (Оливер Стоун, триллер, драма, криминал, 2 ...
  • Особо опасны [Расширенная версия] / Savages [Unrated] (Оливер Стоун, Трилле ...
  • Особо опасны / Savages [UNRATED] (Оливер Стоун, триллер, драма, криминал, 2 ...
  • Особо опасны / Savages [UNRATED] (Оливер Стоун, Триллер, драма, криминал, 2 ...
  • Информация
    Посетители, находящиеся в группе Гости, не могут оставлять комментарии к данной публикации.