вход на сайт

Имя пользователя :
Пароль :

Восстановление пароля Регистрация
Я, Алекс Кросс / Alex Cross (Роб Коэн, Боевик, триллер, криминал, детектив, 2012) [BDRip 1080p, Дубляж, Оригинал (английский), Sub]
Рейтинг:
(голосов: 1)



[img]{THEME}/images/logopost.png[/img]



Я, Алекс Кросс / Alex Cross
«Жестокое преступление. Извращенный убийца. Смертельная игра»


Год выпуска: 2012
Страна: США
Производство: Envision Entertainment Corporation, IAC Productions, James Patterson Entertainment, QED International
Жанр: Боевик, триллер, криминал, детектив

Режиссёр: Роб Коэн
В ролях: Тайлер Перри, Мэттью Фокс, Эдвард Бёрнс, Рэйчел Николс, Жан Рено, Кармен Эджого, Сисели Тайсон, Джон К. МакГинли, Джанкарло Эспозито, Чэд Линдберг

Перевод: Дубляж, Оригинал (английский)
Субтитры: Russian

Описание: Знаменитый детектив Алекс Кросс идет по следам серийного убийцы, и с удивлением обнаруживает, что почерк преступника соответствует манере действий безжалостного маньяка по прозвищу Мясник. Десять лет назад Кросс сорвал исполнение одного из его смертельных контрактов, за что Мясник убил беременную жену полицейского и бесследно исчез. Неужели он вернулся? Кросс вступает в смертельную игру.

Релиз от:





Качество: BDRip 1080p [HDChina]|Сэмпл
Продолжительность:01:41:23 час.


Формат: MKV
Видео кодек: x264
Аудио кодек: DTS
Видео: 1916x1080 (16:9), 24 fps, x264 ~19.8 mb/s, 0.399 bit/pixel
Аудио#1: 48 kHz/24-bit, DTS, 3/2 (L,C,R,l,r) + LFE ch, ~1510.00 kbps avg - (Дубляж)
Аудио#2: 48 kHz/24-bit, DTS, 3/2 (L,C,R,l,r) + LFE ch, ~1510.00 kbps avg - (Оригинал)

Дата премьеры (мир): 15 октября 2012
Дата премьеры (РФ): 18 октября 2012, «Парадиз»

MediaInfo ▼
General
Unique ID : 214084114818817887517239170804566004315 (0xA10F19C9C0267D53AFDC53F06921125B)
Complete name : C:/Documents and SettingsUserМои документыTorrentJa.Aleks.Kross.2012.Dc1.BDRip.1080p.mkv
Format : Matroska
Format version : Version 2
File size : 16.2 GiB
Duration : 1h 41mn
Overall bit rate : 22.8 Mbps
Movie name : IRONCLUB
Encoded date : UTC 2012-12-09 08:04:51
Writing application : mkvmerge v5.2.0 (I cant explain) built on Dec 18 2011 18:12:03
Writing library : libebml v1.2.3 + libmatroska v1.3.0

Video
ID : 1
Format : AVC
Format/Info : Advanced Video Codec
Format profile : [email protected]
Format settings, CABAC : Yes
Format settings, ReFrames : 4 frames
Codec ID : V_MPEG4/ISO/AVC
Duration : 1h 41mn
Bit rate : 19.8 Mbps
Width : 1 916 pixels
Height : 1 080 pixels
Display aspect ratio : 16:9
Frame rate : 24.000 fps
Color space : YUV
Chroma subsampling : 4:2:0
Bit depth : 8 bits
Scan type : Progressive
Bits/(Pixel*Frame) : 0.399
Stream size : 13.7 GiB (85%)
Title : Alex.Cross.2012.1080p.BluRay.x264.DTS-HDChina
Writing library : x264 core 129 r2230+696+36 4446aa2 tMod+MixAQ [[email protected]:2:0 X86_64]
Encoding settings : cabac=1 / ref=4 / deblock=1:-3:-3 / analyse=0x3:0x113 / me=umh / subme=11 / psy=1 / fade_compensate=0.00 / psy_rd=1.10:0.00 / mixed_ref=1 / me_range=48 / chroma_me=1 / trellis=2 / 8x8dct=1 / cqm=0 / deadzone=21,11 / fast_pskip=0 / chroma_qp_offset=-2 / threads=18 / lookahead_threads=3 / sliced_threads=0 / nr=0 / decimate=0 / interlaced=0 / bluray_compat=0 / constrained_intra=0 / fgo=0 / bframes=8 / b_pyramid=2 / b_adapt=2 / b_bias=0 / direct=3 / weightb=1 / open_gop=0 / weightp=2 / keyint=240 / keyint_min=24 / scenecut=40 / intra_refresh=0 / rc_lookahead=240 / rc=2pass / mbtree=1 / bitrate=19800 / ratetol=1.0 / qcomp=0.70 / qpmin=0 / qpmax=69 / qpstep=4 / cplxblur=20.0 / qblur=0.5 / ip_ratio=1.10 / aq=4 / aq-strength=0.75 / aq-sensitivity=10.00 / aq-ifactor=1.00 / aq-pfactor=1.00 / aq-bfactor=1.00 / aq2=0
Language : English
Default : Yes
Forced : Yes

Audio #1
ID : 2
Format : DTS
Format/Info : Digital Theater Systems
Codec ID : A_DTS
Duration : 1h 41mn
Bit rate mode : Constant
Bit rate : 1 510 Kbps
Channel(s) : 6 channels
Channel positions : Front: L C R, Side: L R, LFE
Sampling rate : 48.0 KHz
Bit depth : 16 bits
Compression mode : Lossy
Stream size : 1.07 GiB (7%)
Title : DTS 5.1 @ 1536 kbps
Language : Russian
Default : Yes
Forced : Yes

Audio #2
ID : 3
Format : DTS
Format/Info : Digital
b34c09663ff4ea9937e1fecd6b81f1c96596812dЯ, Алекс Кросс / Alex Cross (Роб Коэн, Боевик, триллер, криминал, детектив, 2012) [BDRip 1080p, Дубляж, Оригинал (английский), Sub] Я, Алекс Кросс / Alex Cross (Роб Коэн, Боевик, триллер, криминал, детектив, 2012) [BDRip 1080p, Дубляж, Оригинал (английский), Sub] " />

Аплоадер: Админ, дата: 10-12-2012, 02:12, торрент скачан: 359 раз

Понравилась раздача? Посмотрите эти:
  • Я, Алекс Кросс / Alex Cross (Роб Коэн, Боевик, триллер, криминал, детектив, ...
  • Я, Алекс Кросс / Alex Cross (Роб Коэн, Боевик, триллер, криминал, детектив, ...
  • Я, Алекс Кросс / Alex Cross (Роб Коэн, Боевик, триллер, криминал, детектив, ...
  • Я, Алекс Кросс / Alex Cross (Роб Коэн, боевик, триллер, криминал, детектив, ...
  • Ворон / The Raven (Джеймс МакТиг, Триллер, детектив, 2012) [BDRip 720p, Дуб ...
  • Супер Майк / Magic Mike (Стивен Содерберг, Драма, комедия, 2012) [BDRip 720 ...
  • Дружинники / The Watch (Акива Шаффер, Фантастика, комедия, 2012) [BDRip 108 ...
  • Третий лишний / Ted (Сет МакФарлейн, Фэнтези, комедия, 2012) [BDRip 1080p, ...
  • Эволюция Борна / The Bourne Legacy (Тони Гилрой, Боевик, триллер, детектив, ...
  • Эволюция Борна / The Bourne Legacy (Тони Гилрой, Боевик, триллер, детектив, ...
  • Я, Алекс Кросс / Alex Cross (Роб Коэн, Боевик, триллер, криминал, детектив, ...
  • Я, Алекс Кросс / Alex Cross (Роб Коэн, Боевик, триллер, криминал, детектив, ...
  • Слова / The Words (Брайан Клагман, Ли Стернтал, Драма, мелодрама, 2012) [BD ...
  • Я, Алекс Кросс / Alex Cross (Роб Коэн, Боевик, триллер, криминал, детектив, ...
  • Я, Алекс Кросс / Alex Cross (Роб Коэн, Боевик, триллер, криминал, детектив, ...
  • Я, Алекс Кросс / Alex Cross (Роб Коэн, Боевик, триллер, криминал, детектив, ...
  • Я, Алекс Кросс / Alex Cross (Роб Коэн, Боевик, триллер, криминал, детектив, ...
  • Я, Алекс Кросс / Alex Cross (Роб Коэн, Боевик, триллер, криминал, детектив, ...
  • [Phone, iPod] Я, Алекс Кросс / Alex Cross (Роб Коэн, боевик, триллер, крими ...
  • [Трейлер] Алекс Кросс / Alex Cross (Роб Коэн, триллер, криминал, детектив) ...
  • Информация
    Посетители, находящиеся в группе Гости, не могут оставлять комментарии к данной публикации.