вход на сайт

Имя пользователя :
Пароль :

Восстановление пароля Регистрация
Обитель Зла: Возмездие / Resident Evil: Retribution (Пол У. С. Андерсон, Ужасы, фантастика, боевик, триллер, 2012) [BDRemux 1080p, полное дублирование (рус., укр.), оригинал (английский), Commentary, Sub]
Рейтинг:
(голосов: 1)



[img]{THEME}/images/logopost.png[/img]



Обитель зла: Возмездие / Resident Evil: Retribution
«Evil goes global»

Год выпуска: 2012
Страна: Германия, Канада
Производство: Constantin Film International, Davis Films/Impact Pictures (RE5)
Жанр: Ужасы, фантастика, боевик, триллер

Режиссёр: Пол У. С. Андерсон
В ролях: Милла Йовович, Сиенна Гиллори, Мишель Родригес, Ариана Энджинир, Ли Бинбин, Борис Коджо, Йохан Урб, Робин Касянов, Кевин Дюран, Офилио Портильо...вард Нортон, Джоан Аллен, Альберт Финни, Скотт Гленн, Стейси Кич, Донна Мерфи, Майкл Чернус, Кори Столл

Перевод: полное дублирование (рус., укр.), оригинал (английский), Commentary
Субтитры: русские, английские

Описание:Смертельный T-вирус, созданный в лабораториях корпорации «Амбрелла», продолжает захватывать Землю, превращая мировое население в легионы пожирающих плоть зомби. Последняя надежда человечества Элис внедряется в самое сердце самой тайной исследовательской базы корпорации и узнает еще больше о собственном таинственном прошлом. Не имея путей к отступлению, Элис продолжает искать виновных в глобальной катастрофе. Вызов, который она принимала в Токио, Нью-Йорке, Вашингтоне и даже в Москве, приводит ее в итоге к взрывающему сознание откровению, которое заставит ее переосмыслить все, что она полагала правдой. С помощью новых союзников и старых друзей, Элис будет сражаться за выживание и убегать из враждебного мира. Отсчет времени начат…


премьера (мир) 3 сентября 2012
премьера (РФ) 13 сентября 2012

Качество:BDRemux 1080p
Продолжительность:01:35:38

Формат: MKV
Видео кодек: AVC
Аудио кодек: DTS-HD Master Audio, AC3
Видео: 1920x1080 (16:9),25,2 Мбит/сек, 23,976 fps, 0.507 bit/pix
Аудио:
Русский (AC3, 6 ch, 640 Кбит/с)
Украинский (AC3, 6 ch, 640 Кбит/с)
Английский (DTS-HD Master Audio, 3360 Кбит/с, 5.1, 48 kHz, 24-bit (DTS Core: 5.1 / 48 kHz / 1 510 Kbps / 24-bit))
Английский (AC3, 2 ch, 192 Кбит/с) (Commentary)
Английский (AC3, 2 ch, 192 Кбит/с) (Commentary)

MediaInfo ▼Text
Общее
Уникальный идентификатор : 222080493528476246439620809190068477439 (0xA71325B28243AE0FBE7FEF7665905DFF)
Полное имя : D:FilmsResident_Evil_Retribution.2012.1080p.BDRemux.mkv
Формат : Matroska
Версия формата : Version 2
Размер файла : 19,4 Гбайт
Продолжительность : 1 ч. 35 м.
Режим общего битрейта : Переменный
Общий поток : 29,0 Мбит/сек
Название фильма : Resident Evil: Retribution
Дата кодирования : UTC 2012-12-07 21:04:12
Программа кодирования : mkvmerge v5.2.0 (I cant explain) built on Dec 18 2011 18:12:03
Библиотека кодирования : libebml v1.2.3 + libmatroska v1.3.0

Видео
Идентификатор : 1
Формат : AVC
Формат/Информация : Advanced Video Codec
Профиль формата : [email protected]
Параметр CABAC формата : Да
Параметр ReFrames формата : 2 кадра
Параметр GOP формата : M=1, N=10
Идентификатор кодека : V_MPEG4/ISO/AVC
Продолжительность : 1 ч. 35 м.
Вид битрейта : Переменный
Битрейт : 25,2 Мбит/сек
Ширина : 1920 пикселей
Высота : 1080 пикселей
Соотношение сторон : 16:9
Частота кадров : 23,976 кадра/сек
Цветовое пространство : YUV
Субдискретизация насыщенности : 4:2:0
Битовая глубина : 8 бит
Тип развёртки : Прогрессивная
Бит/(Пиксели*Кадры) : 0.507
Размер потока : 16,8 Гбайт (87%)
Язык : English
Default : Да
Forced : Нет

Аудио #1
Идентификатор : 2
Формат : AC-3
Формат/Информация : Audio Coding 3
Расширение режима : CM (complete main)
Идентификатор кодека : A_AC3
Продолжительность : 1 ч. 35 м.
Вид битрейта : Постоянный
Битрейт : 640 Кбит/сек
Каналы : 6 каналов
Расположение каналов : Front: L C R, Side: L R, LFE
Частота : 48,0 КГц
Битовая глубина : 16 бит
Метод сжатия : С потерями
Размер потока : 438 Мбайт (2%)
Заголовок : DUB EUR
Язык : Russian
Default : Да
Forced : Нет

Аудио #2
Идентификатор : 3
Формат : AC-3
Формат/Информация : Audio Coding 3
Расширение режима : CM (complete main)
Идентификатор кодека : A_AC3
Продолжительность : 1 ч. 35 м.
Вид битрейта : Постоянный
Битрейт : 640 Кбит/сек
Каналы : 6 к
9df6bad482fd73e69a3a89f76cdfaff14071d1eeОбитель Зла: Возмездие / Resident Evil: Retribution (Пол У. С. Андерсон, Ужасы, фантастика, боевик, триллер, 2012) [BDRemux 1080p, полное дублирование (рус., укр.), оригинал (английский), Commentary, Sub] Обитель Зла: Возмездие / Resident Evil: Retribution (Пол У. С. Андерсон, Ужасы, фантастика, боевик, триллер, 2012) [BDRemux 1080p, полное дублирование (рус., укр.), оригинал (английский), Commentary, Sub] " />

Аплоадер: Админ, дата: 7-12-2012, 08:21, торрент скачан: 359 раз

Понравилась раздача? Посмотрите эти:
  • Обитель Зла: Возмездие / Resident Evil: Retribution (Пол У. С. Андерсон, Уж ...
  • Обитель Зла: Возмездие / Resident Evil: Retribution (Пол У. С. Андерсон, Уж ...
  • Обитель Зла: Возмездие / Resident Evil: Retribution (Пол У. С. Андерсон, Уж ...
  • [3D] Обитель зла 4: Жизнь после смерти 3Д / Resident Evil: Afterlife 3D (По ...
  • [3D] Обитель зла: Возмездие 3D трейлер / Resident Evil: Retribution 3D trai ...
  • [3D] Обитель зла: Возмездие / Resident Evil: Retribution( Пол У. С. Андерсо ...
  • [3D] Обитель зла: Возмездие / Resident Evil: Retribution( Пол У. С. Андерсо ...
  • [3D] Обитель зла: Возмездие / Resident Evil: Retribution (Пол У. С. Андерсо ...
  • Обитель Зла: Возмездие / Resident Evil: Retribution (Пол У. С. Андерсон, Уж ...
  • Обитель Зла: Возмездие / Resident Evil: Retribution (Пол У. С. Андерсон, уж ...
  • Обитель Зла: Возмездие / Resident Evil: Retribution (Пол У. С. Андерсон, Уж ...
  • Обитель Зла: Возмездие / Resident Evil: Retribution (Пол У. С. Андерсон, Уж ...
  • Обитель зла: Возмездие / Resident Evil: Retribution (Пол У. С. Андерсон, уж ...
  • Обитель Зла: Возмездие / Resident Evil: Retribution (Пол У. С. Андерсон, Уж ...
  • Обитель Зла: Возмездие / Resident Evil: Retribution (Пол У. С. Андерсон, уж ...
  • [3D] Обитель Зла: Возмездие / Resident Evil: Retribution (Пол У. С. Андерсо ...
  • [Phone, iPod] Обитель Зла: Возмездие / Resident Evil: Retribution (Пол У. С ...
  • Обитель зла 4: Жизнь после смерти / Resident Evil: Afterlife (Пол У. С. Анд ...
  • [Тизер] Обитель зла 5 / Resident Evil: Retribution (Пол У. С. Андерсон, ужа ...
  • [Тизер] Обитель зла 5 / Resident Evil: Retribution (Пол У. С. Андерсон, ужа ...
  • [Трейлер] Обитель зла 5: Возмездие / Resident Evil: Retribution (Пол У. С. ...
  • [Трейлер #2 ] Обитель зла 5: Возмездие / Resident Evil: Retribution (Пол У. ...
  • Обитель Зла: Возмездие / Resident Evil: Retribution (Пол У. С. Андерсон, уж ...
  • Обитель Зла: Возмездие / Resident Evil: Retribution (Пол У. С. Андерсон, Уж ...
  • Обитель Зла: Возмездие / Resident Evil: Retribution (Пол У. С. Андерсон, Уж ...
  • Информация
    Посетители, находящиеся в группе Гости, не могут оставлять комментарии к данной публикации.