вход на сайт

Имя пользователя :
Пароль :

Восстановление пароля Регистрация
Эволюция Борна / The Bourne Legacy (Тони Гилрой, Боевик, триллер, детектив, приключения, 2012) [BDRip 1080p, Дубляж, Оригинал (английский), Commentary, Sub]
Рейтинг:
(голосов: 1)



[img]{THEME}/images/logopost.png[/img]



Эволюция Борна / The Bourne Legacy
«В игре всегда несколько фигур»


Год выпуска: 2012
Страна: США
Производство: Bourne Four Productions, Universal Pictures
Жанр: Боевик, триллер, детектив, приключения

Режиссёр: Тони Гилрой
В ролях: Джереми Реннер, Рейчел Вайс, Эдвард Нортон, Джоан Аллен, Альберт Финни, Скотт Гленн, Стейси Кич, Донна Мерфи, Майкл Чернус, Кори Столл

Перевод: Дубляж, Оригинал (английский), Commentary
Субтитры: Russian [Forced, Full], English [Full, SDH]

Описание: В игре всегда несколько фигур. Одна из них - Джейсон Борн, другая - совершенный агент Аарон Кросс. Их возможности безграничны. Но даже у идеального оружия бывают сбои...

Релиз от:




Качество: BDRip 1080p| Сэмпл
Продолжительность:02:15:02 час.

Формат: MKV
Видео кодек: x264
Аудио кодек: AAC, DTS
Видео: 1920x800 (2.40:1), 23.976 fps, x264 ~18.5 mb/s 0.502 bit/pixel
Аудио#1: 48 kHz, DTS, 3/2 (L,C,R,l,r) + LFE ch, ~755.00 kbps avg- (Дубляж, CEE)
Аудио#2: 48 kHz/24-bit, DTS, 3/2 (L,C,R,l,r) + LFE ch, ~1510.00 kbps avg - (Оригинал)
Аудио#3: HE-AAC, 48000Hz, 2 channels, ~64 Kbps - (Commentary)

Дата премьеры (мир): 30 июля 2012
Дата премьеры (РФ): 30 августа 2012, «UPI»

MediaInfo ▼
General
Unique ID : 195402226423696078732253732086266429431 (0x9301199380325528A6B8FE5AFCB77FF7)
Complete name : Jevoljucija.Borna.2012.D.BDRip.1080p.IRONCLUB.mkv
Format : Matroska
Format version : Version 2
File size : 19.7 GiB
Duration : 2h 15mn
Overall bit rate : 20.8 Mbps
Movie name : IRONCLUB
Encoded date : UTC 2012-12-05 18:39:15
Writing application : mkvmerge v5.2.0 (I cant explain) built on Dec 18 2011 18:12:03
Writing library : libebml v1.2.3 + libmatroska v1.3.0

Video
ID : 1
Format : AVC
Format/Info : Advanced Video Codec
Format profile : [email protected]
Format settings, CABAC : Yes
Format settings, ReFrames : 5 frames
Codec ID : V_MPEG4/ISO/AVC
Duration : 2h 15mn
Nominal bit rate : 18.5 Mbps
Width : 1 920 pixels
Height : 800 pixels
Display aspect ratio : 2.40:1
Frame rate : 23.976 fps
Color space : YUV
Chroma subsampling : 4:2:0
Bit depth : 8 bits
Scan type : Progressive
Bits/(Pixel*Frame) : 0.502
Title : The.Bourne.Legacy.2012.1080p.BluRay.DTS.x264-HDMaNiAcS
Writing library : x264 core 129 r2230 1cffe9f
Encoding settings : cabac=1 / ref=5 / deblock=1:-3:-3 / analyse=0x3:0x133 / me=tesa / subme=11 / psy=1 / psy_rd=1.12:0.00 / mixed_ref=1 / me_range=24 / chroma_me=1 / trellis=2 / 8x8dct=1 / cqm=0 / deadzone=21,11 / fast_pskip=1 / chroma_qp_offset=-2 / threads=12 / lookahead_threads=2 / sliced_threads=0 / nr=0 / decimate=1 / interlaced=0 / bluray_compat=0 / constrained_intra=0 / bframes=8 / b_pyramid=2 / b_adapt=2 / b_bias=0 / direct=3 / weightb=1 / open_gop=0 / weightp=2 / keyint=240 / keyint_min=23 / scenecut=40 / intra_refresh=0 / rc_lookahead=90 / rc=2pass / mbtree=1 / bitrate=18500 / ratetol=1.0 / qcomp=0.60 / qpmin=10 / qpmax=69 / qpstep=4 / cplxblur=20.0 / qblur=0.5 / ip_ratio=1.40 / aq=2:0.60
Language : English
Default : Yes
Forced : Yes

Audio #1
ID : 2
Format : DTS
Format/Info : Digital Theater Systems
Codec ID : A_DTS
Duration : 2h 15mn
Bit rate mode : Constant
Bit rate : 755 Kbps
Channel(s) : 6 channels
Channel positions : Front: L C R, Side: L R, LFE
Sampling rate : 48.0 KHz
Bit depth : 24 bits
Compression mode : Lossy
Stream size : 729 MiB (4%)
Title : DTS 5.1 @ 768 kbps - Dub, BD CEE
Language : Russian
Default : Yes
Forced : Yes

Audio #2
ID : 3
Format : DTS
Format/Info : Digital Theater Systems
Codec ID : A_DTS
Duration : 2h 15mn
Bit rate mode : Constant
Bit rate : 1 510 Kbps
Channel(s) : 6 channels
Channel positions : Front: L C R, Side: L R, LFE
Sampling rate : 48.0 KHz
Bit depth : 24 bits
Compression mode : Lossy
Stream size : 1.42 GiB (7%)
Title : DTS 5.1 @ 1536 kbps
Language : English
Default : No
Forced : No

Audio #3
ID : 4
Forma
0cb07a3ee197c1645370683fe608fafd1336a833Эволюция Борна / The Bourne Legacy (Тони Гилрой, Боевик, триллер, детектив, приключения, 2012) [BDRip 1080p, Дубляж, Оригинал (английский), Commentary, Sub] Эволюция Борна / The Bourne Legacy (Тони Гилрой, Боевик, триллер, детектив, приключения, 2012) [BDRip 1080p, Дубляж, Оригинал (английский), Commentary, Sub] " />

Аплоадер: Админ, дата: 6-12-2012, 07:47, торрент скачан: 359 раз

Понравилась раздача? Посмотрите эти:
  • Паркер / Parker (Тейлор Хэкфорд, Боевик, триллер, криминал, 2013) [BDRip 7 ...
  • Эволюция Борна / The Bourne Legacy (Тони Гилрой, Боевик, триллер, детектив, ...
  • Эволюция Борна / The Bourne Legacy (Тони Гилрой, Боевик, триллер, детектив, ...
  • Эволюция Борна / The Bourne Legacy (Тони Гилрой, боевик, триллер, детектив, ...
  • Эволюция Борна / The Bourne Legacy (Тони Гилрой, боевик, триллер, 2012) [HD ...
  • Эволюция Борна / The Bourne Legacy (Тони Гилрой, боевик, триллер, детектив, ...
  • Эволюция Борна / The Bourne Legacy (Тони Гилрой, Боевик, триллер, детектив, ...
  • Эволюция Борна / The Bourne Legacy (Тони Гилрой, Боевик, триллер, детектив, ...
  • Эволюция Борна / The Bourne Legacy (Тони Гилрой, Боевик, триллер, детектив, ...
  • Третий лишний / Ted (Сет МакФарлейн, Фэнтези, комедия, 2012) [BDRip 1080p, ...
  • Эволюция Борна / The Bourne Legacy (Тони Гилрой, Боевик, триллер, детектив, ...
  • Эволюция Борна / The Bourne Legacy (Тони Гилрой, боевик, триллер, детектив, ...
  • Эволюция Борна / The Bourne Legacy (Тони Гилрой, боевик, триллер, детектив, ...
  • Эволюция Борна / The Bourne Legacy (Тони Гилрой, боевик, триллер, детектив, ...
  • Я, Алекс Кросс / Alex Cross (Роб Коэн, Боевик, триллер, криминал, детектив, ...
  • Петля времени / Looper (Райан Джонсон, Фантастика, боевик, триллер, 2012) [ ...
  • Эволюция Борна / The Bourne Legacy (Тони Гилрой, Боевик, триллер, детектив, ...
  • Эволюция Борна / The Bourne Legacy (Тони Гилрой, Боевик, триллер, детектив, ...
  • [Phone, iPod] Эволюция Борна / The Bourne Legacy (Тони Гилрой, боевик, трил ...
  • Эволюция Борна / The Bourne Legacy (Тони Гилрой, Боевик, Триллер, Детектив, ...
  • Информация
    Посетители, находящиеся в группе Гости, не могут оставлять комментарии к данной публикации.