вход на сайт

Имя пользователя :
Пароль :

Восстановление пароля Регистрация
Давай, до свидания! / Lola Versus (Дэрил Вейн, Комедия, 2012) [BDRip 720p, Профессиональный (многоголосый, закадровый), Оригинал (английский), Sub]
Рейтинг:
(голосов: 1)



[img]{THEME}/images/logopost.png[/img]



Давай, До Свидания! / Lola Versus
«Против секса, любви и всего мира»


Год выпуска: 2012
Страна: США
Производство: Groundswell Productions
Жанр: Комедия

Режиссёр: Дэрил Вейн
В ролях: Грета Гервиг, Юэль Киннаман, Зои Листер Джонс, Хамиш Линклэйтер, Билл Пуллман, Дебра Уингер, Мария Дицциа, Джонатан Сейл, Эбон Мосс-Бакрак, Адриан Ленокс

Перевод: Профессиональный (многоголосый, закадровый), Оригинал (английский)
Субтитры: English, French, Spanish

Описание: Очаровательная писательница Лола счастлива с женихом Люком. Свадьба — совершенно естественный следующий шаг в их длительных отношениях. Во всяком случае, так кажется невесте. А у Люка совершенно иное мнение на сей счет, и он решился озвучить его накануне свадьбы. Теперь, девушка разочарована в любви, в сексе, в самой жизни! Но за внешностью заплаканной неудачницы скрывается «стойкий оловянный солдатик», который всем еще покажет «кузькину мать».

Релиз от:Качество: BDRip 720p [EbP] | Сэмпл
Продолжительность: 01:26:59 час.


Формат: MKV
Видео кодек: x264
Аудио кодек: AC3, DTS
Видео:1280x694 (1.85:1), 23.976 fps, x264 ~8 500 kbps avg 0.399 bit/pixel
Аудио#1: 48 kHz, AC3 Dolby Digital, 3/2 (L,C,R,l,r) + LFE ch, ~384 kbps avg - (MVO)
Аудио#2: DTS, 48 kHz/16-bit, 3/2 (L,C,R,l,r) + LFE ch, ~1510 kbps avg - (Оригинал)

Дата премьеры (мир): 24 апреля 2012
Дата премьеры (РФ): 20 сентября 2012, «Top Film Distribution»

MediaInfo ▼General
Unique ID : 209601637907899472362159323720780289773 (0x9DAFCE9D0DA6310F9C605BA33ACF16ED)
Complete name : Davaj.do.svidanija.2012.P.BDRip.720p.IRONCLUB.mkv
Format : Matroska
Format version : Version 2
File size : 6.31 GiB
Duration : 1h 26mn
Overall bit rate : 10.4 Mbps
Movie name : IRONCLUB
Encoded date : UTC 2012-11-20 15:23:14
Writing application : mkvmerge v4.9.1 (Ich will) built on Jul 11 2011 23:53:15
Writing library : libebml v1.2.1 + libmatroska v1.1.1

Video
ID : 1
Format : AVC
Format/Info : Advanced Video Codec
Format profile : [email protected]
Format settings, CABAC : Yes
Format settings, ReFrames : 9 frames
Codec ID : V_MPEG4/ISO/AVC
Duration : 1h 26mn
Bit rate : 8 500 Kbps
Width : 1 280 pixels
Height : 694 pixels
Display aspect ratio : 1.85:1
Frame rate : 23.976 fps
Color space : YUV
Chroma subsampling : 4:2:0
Bit depth : 8 bits
Scan type : Progressive
Bits/(Pixel*Frame) : 0.399
Stream size : 5.03 GiB (80%)
Title : Lola.Versus.2012.720p.BluRay.DTS.x264-EbP
Writing library : x264 core 125 r2208 d9d2288
Encoding settings : cabac=1 / ref=9 / deblock=1:-3:-3 / analyse=0x3:0x113 / me=tesa / subme=11 / psy=1 / psy_rd=1.05:0.00 / mixed_ref=1 / me_range=16 / chroma_me=1 / trellis=2 / 8x8dct=1 / cqm=0 / deadzone=21,11 / fast_pskip=0 / chroma_qp_offset=-2 / threads=12 / lookahead_threads=2 / sliced_threads=0 / nr=0 / decimate=0 / interlaced=0 / bluray_compat=0 / constrained_intra=0 / bframes=11 / b_pyramid=2 / b_adapt=2 / b_bias=0 / direct=3 / weightb=1 / open_gop=0 / weightp=2 / keyint=250 / keyint_min=23 / scenecut=40 / intra_refresh=0 / rc=2pass / mbtree=0 / bitrate=8500 / ratetol=1.0 / qcomp=0.60 / qpmin=0 / qpmax=69 / qpstep=4 / cplxblur=20.0 / qblur=0.5 / ip_ratio=1.40 / pb_ratio=1.30 / aq=1:0.60
Language : English
Default : Yes
Forced : Yes

Audio #1
ID : 2
Format : AC-3
Format/Info : Audio Coding 3
Mode extension : CM (complete main)
Format settings, Endianness : Big
Codec ID : A_AC3
Duration : 1h 26mn
Bit rate mode : Constant
Bit rate : 384 Kbps
Channel(s) : 6 channels
Channel positions : Front: L C R, Side: L R, LFE
Sampling rate : 48.0 KHz
Bit depth : 16 bits
Compression mode : Lossy
Stream size : 239 MiB (4%)
Title : DD 5.1 @ 384 kbps - MVO, R5
Language : Russian
Default : Yes
Forced : Yes

Audio #2
ID : 3
Format : DTS
Format/Info : Digital Theater Systems
Codec ID : A_DTS
Duration : 1h 26mn
Bit rate mode : Constant
Bit rate : 1 510 Kbps
Channel(s) : 6 channels
aedf64de14a5060dbbeb8390fd5d92cb7c2b1515Давай, до свидания! / Lola Versus (Дэрил Вейн, Комедия, 2012) [BDRip 720p, Профессиональный (многоголосый, закадровый), Оригинал (английский), Sub] Давай, до свидания! / Lola Versus (Дэрил Вейн, Комедия, 2012) [BDRip 720p, Профессиональный (многоголосый, закадровый), Оригинал (английский), Sub] " />

Аплоадер: Админ, дата: 20-11-2012, 23:34, торрент скачан: 359 раз

Понравилась раздача? Посмотрите эти:
  • Погнали! / Getaway (Кортни Соломон, боевик, криминал, 2013) [BDRip 720p, Пр ...
  • Смерть на похоронах / Death at a Funeral (Нил ЛаБут, комедия, 2010) [BDRip ...
  • Безопасность не гарантируется / Safety Not Guaranteed (Колин Треворроу, фан ...
  • Жизнь Пи / Life Of Pi (Энг Ли, Драма, приключения, 2012) [BDRip 720p, Профе ...
  • Суррогат / The Sessions (Бен Луин, драма, 2012) [BDRip 720p, Профессиональн ...
  • Весенние надежды / Hope Springs (Дэвид Фрэнкел, Драма, мелодрама, комедия, ...
  • Толстяк на ринге / Here Comes the Boom (Фрэнк Корачи, Боевик, комедия, 201 ...
  • Джекпот / Arme Riddere (Магнус Мартенс, Боевик, комедия, криминал, 2011) [B ...
  • Черный дрозд / Deadfall (Штефан Руцовицки, Триллер, драма, криминал, 2012) ...
  • Экстази / Irvine Welshs Ecstasy (Роб Хейдон, Драма, мелодрама, 2011) [BDRip ...
  • Давай, до свидания! / Lola Versus (Дэрил Вейн, Комедия, 2012) [HDRip-AVC, П ...
  • [ENG] Давай, до свидания! / Lola Versus (Дэрил Вейн, Комедия, 2012) [HDRip- ...
  • Давай, до свидания! / Lola Versus (Дэрил Вейн, Комедия, 2012) [BDRip-AVC, П ...
  • Проект X: Дорвались / Project X (Нима Нуризаде, комедия, 2012) [BDRip 720p, ...
  • «Весёлые» каникулы / Get the Gringo (Адриан Грюнберг, Боевик, комедия, 2012 ...
  • Ворон / The Raven (Джеймс МакТиг, Триллер, детектив, 2012) [BDRip 720p, Дуб ...
  • Семь футов / Seven Below (Кевин Каррауэй, Ужасы, триллер, 2012) [BDRip 720p ...
  • Красные огни / Red Lights (Родриго Кортес, Ужасы, триллер, драма, 2012) [BD ...
  • Рок на века / Rock of Ages (Адам Шенкман, Мюзикл, драма, мелодрама, комедия ...
  • Супер Майк / Magic Mike (Стивен Содерберг, Драма, комедия, 2012) [BDRip 720 ...
  • Судный день / The Day (Дуглас Арниокоски, Фантастика, триллер, драма, 2011) ...
  • Доля ангелов / The Angels Share (Кен Лоуч, Драма, комедия, 2012) [BDRip 720 ...
  • На Дороге / On The Road (Уолтер Саллес, Драма, приключения, 2012) [BDRip 72 ...
  • Давай, до свидания! / Lola Versus (Дэрил Вейн, комедия, 2012) [HDRip, Проф ...
  • Давай, до свидания! / Lola Versus (Дэрил Вейн, комедия, 2012) [HDRip, Профе ...
  • Информация
    Посетители, находящиеся в группе Гости, не могут оставлять комментарии к данной публикации.