вход на сайт

Имя пользователя :
Пароль :

Восстановление пароля Регистрация
Красные огни / Red Lights (Родриго Кортес, триллер, драма, детектив, 2012) [BDRip-AVC, Дубляж, Оригинал, Sub]]
Рейтинг:
(голосов: 1)



[img]{THEME}/images/logopost.png[/img]



Красные Огни / Red Lights
«Готов ли ты поверить в это?»


Год выпуска: 2012
Страна: Испания, США
Производство: Antena 3 Films, Cindy Cowan Entertainment, Nostromo Pictures
Жанр: Ужасы, триллер, драма

Режиссёр: Родриго Кортес
В ролях: Роберт Де Ниро, Сигурни Уивер, Киллиан Мёрфи, Элизабет Олсен, Тоби Джонс, Джоэли Ричардсон, Крэйг Робертс, Берн Горман, Карен Шенас-Дэвид, Жан Корнет

Перевод: Дубляж, Оригинал (английский)
Субтитры: Русские, английские

Описание: Парапсихолог Маргарэт Мэтисон изучает паранормальные явления и уже стоит на пороге потрясающих открытий. В своих исследованиях она обращается за помощью к знаменитому когда-то экстрасенсу, который соглашается вернуться к своему занятию спустя 30 лет, не подозревая, чем могут обернуться опасные опыты с неизвестным…



Качество: BDRip-AVC
Продолжительность:01:53:51 час.

Формат: MKV
Видео кодек: AVC
Аудио кодек: AC3
Видео: 1920x816 (2.35:1), 23,976 fps, AVC ~8 717 kbps avg, 0.232 bit/pixel
Аудио #1: 48 kHz, AC3 Dolby Digital, 3/2 (L,C,R,l,r) + LFE ch, ~448 kbps | Дубляж
Аудио #2: 48 kHz, AC3 Dolby Digital, 3/2 (L,C,R,l,r) + LFE ch, ~448 kbps | Оригинал

Дата премьеры (мир): 20 января 2012
Дата премьеры (РФ): 19 июля 2012, «Парадиз»

MediaInfo | x264 log ▼"x264 log" ▼x264 [info]: frame I:1370 Avg QP:14.69 size:161404
x264 [info]: frame P:34660 Avg QP:16.30 size: 78390
x264 [info]: frame B:127770 Avg QP:19.11 size: 35253
General
Unique ID : 188336942799091717845520634617814225748 (0x8DB06032EDC538C695A744050ACA9354)
Complete name : E:торрентRed Lights (2012) BDRip 1080p-F.HD.mkv
Format : Matroska
Format version : Version 2
File size : 7.95 GiB
Duration : 1h 53mn
Overall bit rate : 9 997 Kbps
Encoded date : UTC 2012-10-02 17:48:25
Writing application : mkvmerge v5.8.0 (No Sleep / Pillow) built on Sep 2 2012 15:37:04
Writing library : libebml v1.2.3 + libmatroska v1.3.0

Video
ID : 1
Format : AVC
Format/Info : Advanced Video Codec
Format profile : [email protected]
Format settings, CABAC : Yes
Format settings, ReFrames : 5 frames
Codec ID : V_MPEG4/ISO/AVC
Duration : 1h 53mn
Bit rate : 8 717 Kbps
Width : 1 920 pixels
Height : 816 pixels
Display aspect ratio : 2.35:1
Frame rate : 23.976 fps
Color space : YUV
Chroma subsampling : 4:2:0
Bit depth : 8 bits
Scan type : Progressive
Bits/(Pixel*Frame) : 0.232
Stream size : 6.77 GiB (85%)
Writing library : x264 core 125 r2208 d9d2288
Encoding settings : cabac=1 / ref=5 / deblock=1:-3:-3 / analyse=0x3:0x113 / me=umh / subme=11 / psy=1 / psy_rd=1.00:0.10 / mixed_ref=1 / me_range=32 / chroma_me=1 / trellis=2 / 8x8dct=1 / cqm=0 / deadzone=21,11 / fast_pskip=0 / chroma_qp_offset=1 / threads=6 / lookahead_threads=1 / sliced_threads=0 / nr=0 / decimate=1 / interlaced=0 / bluray_compat=0 / constrained_intra=0 / bframes=9 / b_pyramid=2 / b_adapt=2 / b_bias=0 / direct=3 / weightb=1 / open_gop=0 / weightp=2 / keyint=240 / keyint_min=23 / scenecut=40 / intra_refresh=0 / rc=2pass / mbtree=0 / bitrate=8717 / ratetol=1.0 / qcomp=0.65 / qpmin=10 / qpmax=51 / qpstep=4 / cplxblur=20.0 / qblur=0.5 / ip_ratio=1.40 / pb_ratio=1.30 / aq=2:0.90
Language : English
Default : Yes
Forced : No

Audio #1
ID : 2
Format : AC-3
Format/Info : Audio Coding 3
Mode extension : CM (complete main)
Codec ID : A_AC3
Duration : 1h 53mn
Bit rate mode : Constant
Bit rate : 640 Kbps
Channel(s) : 6 channels
Channel positions : Front: L C R, Side: L R, LFE
Sampling rate : 48.0 KHz
Bit depth : 16 bits
Compression mode : Lossy
Stream size : 521 MiB (6%)
Language : Russian
Default : Yes
Forced : No

Audio #2
ID : 3
Format : AC-3
Format/Info : Audio Coding 3
Mode extension : CM (complete main)
Codec ID : A_AC3
Duration : 1h 53mn
Bit rate mode : Constant
Bit rate : 640 Kbps
Channel(s) : 6 channels
Channel positions : Front: L C R, Side: L R, LFE
Sampling rate : 48.0 KHz
Bit depth : 16 bits
Compression mode : Lossy
Stream si
9ae11565f7d055ff45b1db2cdf3cbb316bdab102Красные огни / Red Lights (Родриго Кортес, триллер, драма, детектив, 2012) [BDRip-AVC, Дубляж, Оригинал, Sub]] Красные огни / Red Lights (Родриго Кортес, триллер, драма, детектив, 2012) [BDRip-AVC, Дубляж, Оригинал, Sub]] " />

Аплоадер: Админ, дата: 17-11-2012, 22:09, торрент скачан: 359 раз

Понравилась раздача? Посмотрите эти:
  • Хроника / Chronicle (Джошуа Транк, фантастика, боевик, триллер, драма, 2012 ...
  • Черный дрозд / Deadfall (Штефан Руцовицки, Триллер, драма, криминал, 2012) ...
  • Красные огни / Red Lights (Родриго Кортес, Ужасы, триллер, драма, 2012) [BD ...
  • Красные огни / Red Lights (Родриго Кортес, Ужасы, триллер, драма, 2012) [BD ...
  • Красные огни / Red Lights (Родриго Кортес, триллер, драма, детектив, 2012) ...
  • Патруль / End of Watch (Дэвид Эйр, Триллер, драма, криминал, 2012) [BDRip-A ...
  • Ворон / The Raven (Джеймс МакТиг, Триллер, детектив, 2012) [BDRip 720p, Дуб ...
  • Пираньи 3DD / Piranha 3DD (Джон Гулажер, ужасы, триллер, комедия, 2012) [BD ...
  • Красные огни / Red Lights (Родриго Кортес, Ужасы, триллер, драма, 2012) [BD ...
  • Красные огни / Red Lights (Родриго Кортес, Ужасы, триллер, драма, 2012) [BD ...
  • Красные огни / Red Lights (Родриго Кортес, Ужасы, триллер, драма, 2012) [BD ...
  • Белоснежка и охотник [Театральная версия] / Snow White and the Huntsman [Th ...
  • Красные огни / Red Lights (Родриго Кортес, Триллер, драма, детектив, 2012) ...
  • Красные огни / Red Lights (Родриго Кортес, Ужасы, триллер, драма, 2012) [Bl ...
  • Супер Майк / Magic Mike (Стивен Содерберг, Драма, комедия, 2012) [BDRip 108 ...
  • На Дороге / On The Road (Уолтер Саллес, Драма, приключения, 2012) [BDRip 72 ...
  • На Дороге / On The Road (Уолтер Саллес, Драма, приключения, 2012) [BDRip 10 ...
  • Патруль / End of Watch (Дэвид Эйр, Триллер, драма, криминал, 2012) [BDRip 7 ...
  • Mylene Farmer / Du Temps [2011, Pop, HDTVRip]
  • [Phone, iPod] Красные Огни / Red Lights (Родриго Кортес, триллер, драма, де ...
  • Красные огни / Red Lights (Родриго Кортес, Ужасы, триллер, драма, 2012) [HD ...
  • Красные огни / Red Lights (Родриго Кортес, Ужасы, Триллер, Драма, 2012) [48 ...
  • Красные огни / Red Lights (Родриго Кортес, Ужасы, триллер, драма, 2012) [HD ...
  • Красные огни / Red Lights (Родриго Кортес, Ужасы, Триллер, Драма, 2012) [32 ...
  • Красные огни / Red Lights (Родриго Кортес, Ужасы, триллер, драма, 2012) [BD ...
  • Информация
    Посетители, находящиеся в группе Гости, не могут оставлять комментарии к данной публикации.