вход на сайт

Имя пользователя :
Пароль :

Восстановление пароля Регистрация
На Дороге / On The Road (Уолтер Саллес, Драма, приключения, 2012) [BDRip 1080p, Дубляж, Оригинал (английский), Sub]
Рейтинг:
(голосов: 1)



[img]{THEME}/images/logopost.png[/img]



На Дороге / On The Road
«Навстречу самому себе»


Год выпуска: 2012
Страна: Франция, Великобритания, США, Бразилия
Производство: American Zoetrope, Canal+ [fr]
Жанр: Драма, приключения

Режиссёр: Уолтер Саллес
В ролях: Гаррет Хедлунд, Сэм Райли, Кристен Стюарт, Эми Адамс, Том Стёрридж, Дэнни Морган, Алиси Брага, Элизабет Мосс, Кирстен Данст, Вигго Мортенсен, Стив Бушеми

Перевод: Дубляж, Оригинал (английский)
Субтитры: Russian, English, French

Описание: После смерти отца начинающий нью-йоркский писатель Сэл Парадайз знакомится с молодым и очаровательным Дином Мориарти, только что вышедшим из тюрьмы и женатым на соблазнительной красотке Марилу. Они мгновенно становятся неразлучными друзьями. Стремясь к свободе, Сэл, Дин и Марилу порывают с условностями жизни и отправляются в путешествие навстречу миру, людям и самим себе.



Качество: BDRip 1080p | Сэмпл
Продолжительность: 02:19:42 час.


Формат: MKV
Видео кодек: x264
Аудио кодек: AC3, DTS
Видео:1920x816 (2.35:1), 24.000 fps, x264 ~13.9 mb/s 0.369 bit/pixel
Аудио#1: 48 kHz, AC3 Dolby Digital, 3/2 (L,C,R,l,r) + LFE ch, ~384 kbps - (Дубляж)
Аудио#2: DTS, 48 kHz/16-bit, 3/2 (L,C,R,l,r) + LFE ch, ~1510 kbps avg - (Оригинал)

Дата премьеры (мир): 23 мая 2012
Дата премьеры (РФ): 4 октября 2012, «Другое кино»

MediaInfo ▼General
Complete name : Na.doroge.2012.D.BDRip.1080p.Goliaf.mkv
Format : Matroska
Format version : Version 2
File size : 15.4 GiB
Duration : 2h 19mn
Overall bit rate : 15.7 Mbps
Movie name : "Muxed by Goliaf"
Encoded date : UTC 2012-11-11 08:39:07
Writing application : mkvmerge v5.8.0 (No Sleep / Pillow) built on Sep 2 2012 15:37:04
Writing library : libebml v1.2.3 + libmatroska v1.3.0

Video
ID : 1
Format : AVC
Format/Info : Advanced Video Codec
Format profile : [email protected]
Format settings, CABAC : Yes
Format settings, ReFrames : 5 frames
Codec ID : V_MPEG4/ISO/AVC
Duration : 2h 19mn
Bit rate : 13.9 Mbps
Width : 1 920 pixels
Height : 816 pixels
Display aspect ratio : 2.35:1
Frame rate : 24.000 fps
Color space : YUV
Chroma subsampling : 4:2:0
Bit depth : 8 bits
Scan type : Progressive
Bits/(Pixel*Frame) : 0.369
Stream size : 13.2 GiB (86%)
Title : CHD
Writing library : x264 core 128 r2216 198a7ea
Encoding settings : cabac=1 / ref=5 / deblock=1:-3:-3 / analyse=0x3:0x113 / me=umh / subme=10 / psy=1 / psy_rd=1.10:0.10 / mixed_ref=1 / me_range=32 / chroma_me=1 / trellis=2 / 8x8dct=1 / cqm=0 / deadzone=21,11 / fast_pskip=0 / chroma_qp_offset=-2 / threads=12 / lookahead_threads=2 / sliced_threads=0 / nr=0 / decimate=1 / interlaced=0 / bluray_compat=0 / constrained_intra=0 / bframes=6 / b_pyramid=2 / b_adapt=2 / b_bias=0 / direct=3 / weightb=1 / open_gop=0 / weightp=2 / keyint=250 / keyint_min=24 / scenecut=40 / intra_refresh=0 / rc_lookahead=40 / rc=2pass / mbtree=0 / bitrate=13862 / ratetol=1.0 / qcomp=0.60 / qpmin=0 / qpmax=69 / qpstep=4 / cplxblur=20.0 / qblur=0.5 / vbv_maxrate=40000 / vbv_bufsize=30000 / nal_hrd=none / ip_ratio=1.40 / pb_ratio=1.30 / aq=1:1.00
Language : English

Audio #1
ID : 2
Format : AC-3
Format/Info : Audio Coding 3
Mode extension : CM (complete main)
Codec ID : A_AC3
Duration : 2h 19mn
Bit rate mode : Constant
Bit rate : 384 Kbps
Channel(s) : 6 channels
Channel positions : Front: L C R, Side: L R, LFE
Sampling rate : 48.0 KHz
Bit depth : 16 bits
Compression mode : Lossy
Stream size : 384 MiB (2%)
Title : Dub
Language : Russian

Audio #2
ID : 3
Format : DTS
Format/Info : Digital Theater Systems
Codec ID : A_DTS
Duration : 2h 19mn
Bit rate mode : Constant
Bit rate : 1 510 Kbps
Channel(s) : 6 channels
Channel positions : Front: L C R, Side: L R, LFE
Sampling rate : 48.0 KHz
Bit depth : 16 bits
Compression mode : Lossy
Stream size : 1.47 GiB (10%)
Title : English DTS 5.1 1509Kbps
Language : English

Text #1
ID : 4
Format : UTF-8
Codec ID : S_TEXT/UTF8
Codec I
caf96679d0f07127396ad71737ca377cc4f9f608На Дороге / On The Road (Уолтер Саллес, Драма, приключения, 2012) [BDRip 1080p, Дубляж, Оригинал (английский), Sub] На Дороге / On The Road (Уолтер Саллес, Драма, приключения, 2012) [BDRip 1080p, Дубляж, Оригинал (английский), Sub] " />

Аплоадер: Админ, дата: 11-11-2012, 11:38, торрент скачан: 359 раз

Понравилась раздача? Посмотрите эти:
  • Хичкок / Hitchcock (Саша Джерваси, Драма, история, биография, 2012) [BDRip ...
  • Жизнь Пи / Life Of Pi (Энг Ли, Драма, приключения, 2012) [BDRip 1080p, Проф ...
  • Толстяк на ринге / Here Comes the Boom (Фрэнк Корачи, Боевик, комедия, 201 ...
  • Толстяк на ринге / Here Comes the Boom (Фрэнк Корачи, Боевик, комедия, 201 ...
  • Анна Каренина / Anna Karenina (Джо Райт, Драма, мелодрама, 2012) [BDRip 108 ...
  • На дороге / On the Road (Уолтер Саллес, драма, приключения, 2012) [BDRip-AV ...
  • На Дороге / On The Road (Уолтер Саллес, Драма, приключения, 2012) [HDRip-AV ...
  • На Дороге / On The Road (Уолтер Саллес, Драма, приключения, 2012) [HDRip-AV ...
  • Патруль / End of Watch (Дэвид Эйр, Триллер, драма, криминал, 2012) [BDRip-A ...
  • Бобер / The Beaver (Джоди Фостер, драма, 2011) [BDRip 720p, Дубляж + Оригин ...
  • Проект X: Дорвались / Project X (Нима Нуризаде, комедия, 2012) [BDRip 720p, ...
  • Ворон / The Raven (Джеймс МакТиг, Триллер, детектив, 2012) [BDRip 720p, Дуб ...
  • Хижина в лесу / The Cabin in the Woods (Дрю Годдард, Ужасы, фантастика, три ...
  • Красные огни / Red Lights (Родриго Кортес, Ужасы, триллер, драма, 2012) [BD ...
  • Белоснежка и охотник [Театральная версия] / Snow White and the Huntsman [Th ...
  • Супер Майк / Magic Mike (Стивен Содерберг, Драма, комедия, 2012) [BDRip 720 ...
  • Супер Майк / Magic Mike (Стивен Содерберг, Драма, комедия, 2012) [BDRip 108 ...
  • На Дороге / On The Road (Уолтер Саллес, Драма, приключения, 2012) [BDRip 72 ...
  • Красные огни / Red Lights (Родриго Кортес, триллер, драма, детектив, 2012) ...
  • Патруль / End of Watch (Дэвид Эйр, Триллер, драма, криминал, 2012) [BDRip 7 ...
  • Эволюция Борна / The Bourne Legacy (Тони Гилрой, Боевик, триллер, детектив, ...
  • Люди как мы / People Like Us (Алекс Куртцман, Драма, 2012) [BDRip 1080p, Пр ...
  • На Дороге / On The Road (Уолтер Саллес, Драма, приключения, 2012) [HDRip, Д ...
  • На Дороге / On The Road (Уолтер Саллес, Драма, приключения, 2012) [HDRip, Д ...
  • На Дороге / On The Road (Уолтер Саллес, Драма, приключения, 2012) [DVD9, Ду ...
  • Информация
    Посетители, находящиеся в группе Гости, не могут оставлять комментарии к данной публикации.