вход на сайт

Имя пользователя :
Пароль :

Восстановление пароля Регистрация
ДухLess (Роман Прыгунов, Драма, 2012) [BDRip 720p, Не требуется]
Рейтинг:
(голосов: 1)



[img]{THEME}/images/logopost.png[/img]



ДухLess



Год выпуска: 2012
Страна: Россия
Производство: Кинослово, Арт Пикчерс Студия
Жанр: Драма

Режиссёр: Роман Прыгунов
В ролях: Данила Козловский, Артем Михалков, Михаил Ефремов, Мария Андреева, Артур Смольянинов, Мария Кожевникова, Сергей Белоголовцев, Игорь Войнаровский, Михаил Люлинецкий, Михаил Мухтасипов

Перевод: Не требуется
Субтитры: Отсутствуют

Описание: Главный герой фильма — 29-летний топ-менеджер крупного международного банка по имени Макс. Он уверен, что жизнь удалась, ведь у него есть то, о чём многие не могут даже и мечтать: дорогая машина, пентхаус и вечеринки. Свою жизнь Максим тратит на зарабатывание денег, а деньги — на ночные клубы, шикарных девушек, кокаин и прочие атрибуты, так называемой, гламурной жизни. Но в какой-то момент к герою приходит осознание того, что с его жизнью что-то не так. И его мир начинает рушиться, подобно карточному домику. В картине говорится о переоценке себя и жизни вокруг, о преодолении внутреннего кризиса.

Релиз от:



Качество: BDRip 720p [IRONCLUB]| Сэмпл
Продолжительность:01:45:24 час


Формат: MKV
Видео кодек: x264
Аудио кодек: AC3
Видео:1280x544 (2.35:1), 24.000 fps, x264 ~8 333 kbps avg 0.499 bit/pixel
Аудио: 48 kHz, AC3 Dolby Digital, 3/2 (L,C,R,l,r) + LFE ch, ~640 kbps

Дата премьеры (РФ): 4 октября 2012, «UPI»

MediaInfo ▼General
Unique ID : 189098247369470020791495303995236793633 (0x8E42FF6987862A7D98D5AEA35C67BD21)
Complete name : Duhless.2012.O.BDRip.720p.IRONCLUB.mkv
Format : Matroska
Format version : Version 2
File size : 6.74 GiB
Duration : 1h 45mn
Overall bit rate : 9 155 Kbps
Movie name : IRONCLUB
Encoded date : UTC 2012-11-09 05:31:47
Writing application : mkvmerge v4.9.1 (Ich will) built on Jul 11 2011 23:53:15
Writing library : libebml v1.2.1 + libmatroska v1.1.1

Video
ID : 1
Format : AVC
Format/Info : Advanced Video Codec
Format profile : [email protected]
Format settings, CABAC : Yes
Format settings, ReFrames : 12 frames
Codec ID : V_MPEG4/ISO/AVC
Duration : 1h 45mn
Bit rate : 8 333 Kbps
Width : 1 280 pixels
Height : 544 pixels
Display aspect ratio : 2.35:1
Frame rate : 24.000 fps
Color space : YUV
Chroma subsampling : 4:2:0
Bit depth : 8 bits
Scan type : Progressive
Bits/(Pixel*Frame) : 0.499
Stream size : 6.14 GiB (91%)
Title : Duhless 2012 720p Bluray AC3 x264-IRONCLUB
Writing library : x264 core 125 r2200 999b753
Encoding settings : cabac=1 / ref=12 / deblock=1:-3:-3 / analyse=0x3:0x113 / me=umh / subme=10 / psy=1 / psy_rd=1.05:0.00 / mixed_ref=1 / me_range=32 / chroma_me=1 / trellis=2 / 8x8dct=1 / cqm=0 / deadzone=21,11 / fast_pskip=0 / chroma_qp_offset=-2 / threads=12 / lookahead_threads=2 / sliced_threads=0 / nr=0 / decimate=1 / interlaced=0 / bluray_compat=0 / constrained_intra=0 / bframes=8 / b_pyramid=2 / b_adapt=2 / b_bias=0 / direct=3 / weightb=1 / open_gop=0 / weightp=2 / keyint=250 / keyint_min=24 / scenecut=40 / intra_refresh=0 / rc_lookahead=40 / rc=crf / mbtree=0 / crf=17.0 / qcomp=0.65 / qpmin=0 / qpmax=69 / qpstep=4 / vbv_maxrate=50000 / vbv_bufsize=50000 / crf_max=0.0 / nal_hrd=none / ip_ratio=1.25 / pb_ratio=1.15 / aq=2:0.85
Language : English
Default : Yes
Forced : Yes
Color primaries : BT.709-5, BT.1361, IEC 61966-2-4, SMPTE RP177

Audio
ID : 2
Format : AC-3
Format/Info : Audio Coding 3
Mode extension : CM (complete main)
Format settings, Endianness : Big
Codec ID : A_AC3
Duration : 1h 45mn
Bit rate mode : Constant
Bit rate : 640 Kbps
Channel(s) : 6 channels
Channel positions : Front: L C R, Side: L R, LFE
Sampling rate : 48.0 KHz
Bit depth : 16 bits
Compression mode : Lossy
Stream size : 483 MiB (7%)
Title : DD 5.1 @ 640 kbps
Language : Russian
Default : Yes
Forced : Yes

Menu
00:00:00.000 : ru:00:00:00.000
00:10:16.666 : ru:00:10:16.666
00:21:17.750 : ru:00:21:17.750
00:38:58.500 : ru:00:38:58.500
00:52:55.250 : ru:00:52:55.250
01:04:04.208 : ru:
98b540685d92463d3b6563110b9eefbf30c90e2bДухLess (Роман Прыгунов, Драма, 2012) [BDRip 720p, Не требуется] ДухLess (Роман Прыгунов, Драма, 2012) [BDRip 720p, Не требуется] " />

Аплоадер: Админ, дата: 9-11-2012, 14:13, торрент скачан: 359 раз

Понравилась раздача? Посмотрите эти:
  • Билет на Vegas (Гор Киракосян, Комедия, приключения, 2012) [BDRip 720p, Не ...
  • Марко Макако / Marco Macaco (Жан Рабек, Мультфильм, комедия, семейный, 2012 ...
  • ДухLess (Роман Прыгунов, Драма, 2012) [BDRip-AVC, Не требуется]
  • ДухLess (Роман Прыгунов, Драма, 2012) [BDRip-AVC, Не требуется]
  • ДухLess (Роман Прыгунов, драма, 2012) [BDRip-AVC, Оригинал]
  • ДухLess (Роман Прыгунов, драма, 2012) [HDRip-AVC, Не требуется]
  • Белый тигр (Карен Шахназаров, военный, 2012) [BDRip 720p, Не требуется]
  • Девчата (Юрий Чулюкин, мелодрама, комедия, 1961) [BDRip 720p, Не требуется] ...
  • Джок / Jock (Дункан МакНили, мультфильм, комедия, приключения, семейный, 20 ...
  • Матч (Андрей Малюков, Драма, спорт, 2012) [BDRip 720p, Не требуется]
  • Три метра над уровнем неба: Я тебя хочу / Tengo ganas de ti / I Want You (Ф ...
  • Золушка: Полный вперед! / Cendrillon au Far West (Паскаль Эрольд, Мультфиль ...
  • Неудержимые 2 / The Expendables 2 (Саймон Уэст, боевик, триллер, 2012) [BDR ...
  • ЗЛО / V/H/S (Мэттью Беттинелли, Адам Вингард, Дэвид Брукнер, ужасы, 2012) [ ...
  • Сказка. Есть (Елизавета Соломина, Константин Статский, Александр Баршак, Фэ ...
  • Любовь С Препятствиями / Un Bonheur Narrive Jamais Seul (Джеймс Хат, Мелодр ...
  • Орда (Андрей Прошкин, История, 2012) [BDRip 720p, Не требуется]
  • Москва 2017 / Branded (Джейми Брэдшоу, Александр Дулерайн, фантастика, трил ...
  • Третий лишний / Ted (Сет МакФарлейн, Фэнтези, комедия, 2012) [BDRip 720p, Д ...
  • 1812: Уланская баллада (Олег Фесенко, Приключения, 2012) [BDRip 720p, Не тр ...
  • ДухLess (Роман Прыгунов, Драма, 2012) [320x240] [DVDRip, Не требуется]
  • ДухLess (Роман Прыгунов, Драма, 2012) [DVD5, Не требуется]
  • ДухLess (Роман Прыгунов, драма, 2012) [Blu-Ray Disc [RUS], не требуется]
  • ДухLess (Роман Прыгунов, Драма, 2012) [BDRip, Не требуется]
  • ДухLess (Роман Прыгунов, Драма, 2012) [HDRip, Не требуется]
  • Информация
    Посетители, находящиеся в группе Гости, не могут оставлять комментарии к данной публикации.