вход на сайт

Имя пользователя :
Пароль :

Восстановление пароля Регистрация
Дружинники / The Watch (Акива Шаффер, Фантастика, комедия, 2012) [BDRip 1080p, Дубляж, Ukrainian, Оригинал (английский), Sub]
Рейтинг:
(голосов: 1)



[img]{THEME}/images/logopost.png[/img]



Дружинники / The Watch
«Крыша нужна?»


Год выпуска: 2012
Страна: США
Производство: Twentieth Century Fox, 21 Laps Entertainment
Жанр: Фантастика, комедия

Режиссёр: Акива Шаффер
В ролях: Джона Хилл, Бен Стиллер, Винс Вон, Розмари ДеУитт, Билли Крудап, Ричард Айоаде, Р. Ли Эрми, Уилл Форте, Даг Джонс, Йорма Такконе

Перевод: Дубляж, Ukrainian, Оригинал (английский)
Субтитры: Russian, Ukrainian, English

Описание: Сюжет фильма разворачивается вокруг дружной компании соседей, организовавших дружину ради патрулирования окрестностей и поддержания порядка. В действительности благие намерения были лишь поводом хотя бы изредка сбегать от семьи, дабы покутить вечерком в сугубо мужской компании. Безоблачная жизнь заканчивается в тот момент, когда соседский дозор случайно узнаёт о заговоре с целью уничтожить мир.

Релиз от:



Качество: BDRip 1080p [HDChina] | Сэмпл
Продолжительность:01:41:56 час.


Формат: MKV
Видео кодек: x264
Аудио кодек: AC3, DTS
Видео:1920x816 (2.35:1), 23.976 fps, x264 ~14.0 mb/s 0.373 bit/pixel
Аудио#1: 48 kHz/24-bit, DTS, 3/2 (L,C,R,l,r) + LFE ch, ~755.00 kbps avg- (Дубляж)
Аудио#2: 48 kHz, AC3 Dolby Digital, 3/2 (L,C,R,l,r) + LFE ch, ~448 kbps - (Ukrainian)
Аудио#3: 48 kHz/24-bit, DTS, 3/2 (L,C,R,l,r) + LFE ch, ~1510.00 kbps avg - (Оригинал)

Дата премьеры (мир): 27 июля 2012
Дата премьеры (РФ): 23 августа 2012, «Двадцатый Век Фокс СНГ»

MediaInfo| ▼
General
Unique ID : 170193352398163242753215795713296347413 (0x800A0C20910DF907933693CAD678B115)
Complete name : Drujinniki.2012.D.BDRip.1080p.IRONCLUB.mkv
Format : Matroska
Format version : Version 2
File size : 11.9 GiB
Duration : 1h 41mn
Overall bit rate : 16.7 Mbps
Movie name : IRONCLUB
Encoded date : UTC 2012-11-05 22:48:22
Writing application : mkvmerge v4.9.1 (Ich will) built on Jul 11 2011 23:53:15
Writing library : libebml v1.2.1 + libmatroska v1.1.1

Video
ID : 1
Format : AVC
Format/Info : Advanced Video Codec
Format profile : [email protected]
Format settings, CABAC : Yes
Format settings, ReFrames : 5 frames
Codec ID : V_MPEG4/ISO/AVC
Duration : 1h 41mn
Bit rate : 14.0 Mbps
Width : 1 920 pixels
Height : 816 pixels
Display aspect ratio : 2.35:1
Frame rate : 23.976 fps
Color space : YUV
Chroma subsampling : 4:2:0
Bit depth : 8 bits
Scan type : Progressive
Bits/(Pixel*Frame) : 0.373
Stream size : 9.74 GiB (82%)
Title : The.Watch.2012.1080p.BluRay.x264.DTS-HDChina
Writing library : x264 core 128 r2216+688+33 06dac27 tMod+MixAQ [[email protected]:2:0 X86_64]
Encoding settings : cabac=1 / ref=5 / deblock=1:-3:-3 / analyse=0x3:0x113 / me=umh / subme=11 / psy=1 / fade_compensate=0.00 / psy_rd=1.15:0.00 / mixed_ref=1 / me_range=48 / chroma_me=1 / trellis=2 / 8x8dct=1 / cqm=0 / deadzone=21,11 / fast_pskip=0 / chroma_qp_offset=-2 / threads=18 / lookahead_threads=3 / sliced_threads=0 / nr=0 / decimate=0 / interlaced=0 / bluray_compat=0 / constrained_intra=0 / fgo=0 / bframes=8 / b_pyramid=2 / b_adapt=2 / b_bias=0 / direct=3 / weightb=1 / open_gop=0 / weightp=2 / keyint=240 / keyint_min=24 / scenecut=40 / intra_refresh=0 / rc_lookahead=240 / rc=2pass / mbtree=1 / bitrate=14000 / ratetol=1.0 / qcomp=0.70 / qpmin=0 / qpmax=69 / qpstep=4 / cplxblur=20.0 / qblur=0.5 / ip_ratio=1.10 / aq=4 / aq-strength=0.90 / aq-sensitivity=10.00 / aq-ifactor=1.00 / aq-pfactor=1.00 / aq-bfactor=1.00 / aq2=0
Language : English
Default : Yes
Forced : Yes

Audio #1
ID : 2
Format : DTS
Format/Info : Digital Theater Systems
Codec ID : A_DTS
Duration : 1h 41mn
Bit rate mode : Constant
Bit rate : 755 Kbps
Channel(s) : 6 channels
Channel positions : Front: L C R, Side: L R, LFE
Sampling rate : 48.0 KHz
Bit depth : 24 bits
Compression mode : Lossy
Stream size : 550 MiB (5%)
Title : DTS 5.1 @ 768 kbps - Dub, BD CEE
Language : Russian
Default : Yes
Forced : Yes

Audio #2
ID : 3
Format : AC-3
Format/Info : Audio Co
3f2f460ccb1178537787f8530df7d863b09eb831Дружинники / The Watch (Акива Шаффер, Фантастика, комедия, 2012) [BDRip 1080p, Дубляж, Ukrainian, Оригинал (английский), Sub] Дружинники / The Watch (Акива Шаффер, Фантастика, комедия, 2012) [BDRip 1080p, Дубляж, Ukrainian, Оригинал (английский), Sub] " />

Аплоадер: Админ, дата: 6-11-2012, 08:09, торрент скачан: 359 раз

Понравилась раздача? Посмотрите эти:
  • Жизнь Пи / Life Of Pi (Энг Ли, Драма, приключения, 2012) [BDRip 1080p, Проф ...
  • Дружинники / The Watch (Акива Шаффер, Фантастика, комедия, 2012) [BDRip-AVC ...
  • Дружинники / The Watch (Акива Шаффер, Фантастика, комедия, 2012) [HDRip-AVC ...
  • Дружинники / The Watch (Акива Шаффер, Фантастика, комедия, 2012) [BDRip-AVC ...
  • Ворон / The Raven (Джеймс МакТиг, Триллер, детектив, 2012) [BDRip 720p, Дуб ...
  • Прометей / Prometheus (Ридли Скотт, фантастика, триллер, приключения, 2012) ...
  • Новый Человек-паук / The Amazing Spider-Man (Марк Уэбб, Фантастика, боевик, ...
  • Дружинники / The Watch (Акива Шаффер, Фантастика, комедия, 2012) [BDRip 720 ...
  • Вспомнить всё / Total Recall [EXTENDED] (Лен Уайзман, Фантастика, боевик, ...
  • Дружинники / The Watch (Акива Шаффер, Фантастика, комедия, 2012) [BDRip-AVC ...
  • Третий лишний / Ted (Сет МакФарлейн, Фэнтези, комедия, 2012) [BDRip 1080p, ...
  • Обитель Зла: Возмездие / Resident Evil: Retribution (Пол У. С. Андерсон, Уж ...
  • Петля времени / Looper (Райан Джонсон, Фантастика, боевик, триллер, 2012) [ ...
  • [Phone, iPod] Дружинники / The Watch (Акива Шаффер, фантастика, комедия, 20 ...
  • Дружинники / The Watch (Акива Шаффер, фантастика, комедия, 2012) [HDRip, Пр ...
  • Дружинники / The Watch (Акива Шаффер, Фантастика, комедия, 2012) [Blu-ray [ ...
  • Дружинники / The Watch (Акива Шаффер, Фантастика, комедия, 2012) [HDRip, Ду ...
  • Дружинники / The Watch (Акива Шаффер, Фантастика, Комедия, 2012) [480x200] ...
  • Дружинники / The Watch (Акива Шаффер, Фантастика, Комедия, 2012) [320x136] ...
  • Дружинники / The Watch (Акива Шаффер, Фантастика, комедия, 2012) [HDRip, Ду ...
  • Информация
    Посетители, находящиеся в группе Гости, не могут оставлять комментарии к данной публикации.