вход на сайт

Имя пользователя :
Пароль :

Восстановление пароля Регистрация
Доля ангелов / The Angels Share (Кен Лоуч, Драма, комедия, 2012) [BDRip 720p, Профессиональный (многоголосый закадровый), Оригинал (английский), Sub]
Рейтинг:
(голосов: 1)



[img]{THEME}/images/logopost.png[/img]



Доля ангелов / The Angels Share


Год выпуска: 2012
Страна: Великобритания, Франция, Бельгия, Италия
Производство: British Film Institute (BFI), Why Not Productions
Жанр: Драма, комедия

Режиссёр: Кен Лоуч
В ролях: Пол Брэнниган, Джон Хеншоу, Гари Мейтленд, Жасмин Риггинс, Уильям Руэйн, Роджер Аллам, Шиван Рейли, Чойе Бэй, Пол Бирчард, Джеймс Кэйси

Перевод: Профессиональный (многоголосый закадровый), Оригинал (английский)
Субтитры: English

Описание: Глазго. Молодой отец семейства Робби хочет навсегда расстаться со своим криминальным прошлым, но у него ничего не получается. В очередном деле Робби удается избежать тюрьмы, но его отправляют на принудительные работы. Ему и его новым товарищам Рино, Альберту и Мо назначают наставника Гарри, который втайне обучает их искусству дегустации виски.

Релиз от:



Качество: BDRip 720p [CHD]| Сэмпл
Продолжительность:01:41:07 час.


Формат: MKV
Видео кодек: x264
Аудио кодек: AC3, DTS
Видео: 1280x690 (1.85:1), 23.976 fps, x264 ~7 730 kbps avg, 0.365 bit/pixel
Аудио#1: 48 kHz, AC3 Dolby Digital, 2/0 (L,R) ch, ~224 kbps (MVO)
Аудио#2: 48 kHz/24-bit, DTS, 3/2 (L,C,R,l,r) + LFE ch, ~1510.00 kbps avg (Оригинал)

Дата премьеры (мир): 22 мая 2012
Дата премьеры (РФ): 27 сентября 2012, «Русский репортаж»

MediaInfo| ▼
General
Unique ID : 204194994215611428693262075703850192246 (0x999E867FA80B67878D9C83C9C0744D76)
Complete name : Dolya.angelov.2012.P.BDRip.720p.IRONCLUB.mkv
Format : Matroska
Format version : Version 2
File size : 6.67 GiB
Duration : 1h 41mn
Overall bit rate : 9 446 Kbps
Movie name : IRONCLUB
Encoded date : UTC 2012-10-29 19:24:00
Writing application : mkvmerge v4.9.1 (Ich will) сборка от Jul 11 2011 23:53:15
Writing library : libebml v1.2.1 + libmatroska v1.1.1

Video
ID : 1
Format : AVC
Format/Info : Advanced Video Codec
Format profile : [email protected]
Format settings, CABAC : Yes
Format settings, ReFrames : 9 frames
Codec ID : V_MPEG4/ISO/AVC
Duration : 1h 41mn
Bit rate : 7 730 Kbps
Width : 1 280 pixels
Height : 690 pixels
Display aspect ratio : 1.85:1
Frame rate : 23.976 fps
Color space : YUV
Chroma subsampling : 4:2:0
Bit depth : 8 bits
Scan type : Progressive
Bits/(Pixel*Frame) : 0.365
Stream size : 5.32 GiB (80%)
Title : The.Angels.Share.2012.BluRay.720p.DTS.x264-CHD
Writing library : x264 core 128 r2216+698 b3c1019
Encoding settings : cabac=1 / ref=9 / deblock=1:-3:-3 / analyse=0x3:0x113 / me=umh / subme=10 / psy=1 / fade_compensate=0.00 / psy_rd=1.10:0.10 / mixed_ref=1 / me_range=32 / chroma_me=1 / trellis=2 / 8x8dct=1 / cqm=0 / deadzone=21,11 / fast_pskip=0 / chroma_qp_offset=-2 / threads=12 / lookahead_threads=2 / sliced_threads=0 / nr=0 / decimate=1 / interlaced=0 / bluray_compat=0 / constrained_intra=0 / fgo=0 / bframes=6 / b_pyramid=2 / b_adapt=2 / b_bias=0 / direct=3 / weightb=1 / open_gop=0 / weightp=2 / keyint=250 / keyint_min=23 / scenecut=40 / intra_refresh=0 / rc_lookahead=40 / rc=2pass / mbtree=0 / bitrate=7730 / ratetol=1.0 / qcomp=0.60 / qpmin=0 / qpmax=69 / qpstep=4 / cplxblur=20.0 / qblur=0.5 / vbv_maxrate=40000 / vbv_bufsize=30000 / nal_hrd=none / ip_ratio=1.40 / pb_ratio=1.30 / aq=1:0.90
Language : English
Default : Yes
Forced : Yes

Audio #1
ID : 2
Format : AC-3
Format/Info : Audio Coding 3
Mode extension : CM (complete main)
Format settings, Endianness : Big
Codec ID : A_AC3
Duration : 1h 41mn
Bit rate mode : Constant
Bit rate : 224 Kbps
Channel(s) : 2 channels
Channel positions : Front: L R
Sampling rate : 48.0 KHz
Bit depth : 16 bits
Compression mode : Lossy
Stream size : 162 MiB (2%)
Title : DD 2.0 @ 224 kbps - MVO, R5
Language : Russian
Default : Yes
Forced : Yes

Audio #2
ID : 3
Format : DTS
Format/Info : Digital Theater Systems
Codec ID : A_DTS
Duration : 1h 41mn
Bit rate mode : Constant
Bit rate : 1 510 Kbps
Channel(s) : 6 channels
Channel positions : F
859cdb8e267cba7d4df1487dde10e4692082345aДоля ангелов / The Angels Share (Кен Лоуч, Драма, комедия, 2012) [BDRip 720p, Профессиональный (многоголосый закадровый), Оригинал (английский), Sub] Доля ангелов / The Angels Share (Кен Лоуч, Драма, комедия, 2012) [BDRip 720p, Профессиональный (многоголосый закадровый), Оригинал (английский), Sub] " />

Аплоадер: Админ, дата: 30-10-2012, 08:14, торрент скачан: 359 раз

Понравилась раздача? Посмотрите эти:
  • Погнали! / Getaway (Кортни Соломон, боевик, криминал, 2013) [BDRip 720p, Пр ...
  • Жизнь Пи / Life Of Pi (Энг Ли, Драма, приключения, 2012) [BDRip 720p, Профе ...
  • Суррогат / The Sessions (Бен Луин, драма, 2012) [BDRip 720p, Профессиональн ...
  • Толстяк на ринге / Here Comes the Boom (Фрэнк Корачи, Боевик, комедия, 201 ...
  • Джекпот / Arme Riddere (Магнус Мартенс, Боевик, комедия, криминал, 2011) [B ...
  • Экстази / Irvine Welshs Ecstasy (Роб Хейдон, Драма, мелодрама, 2011) [BDRip ...
  • Доля ангелов / The Angels Share (Кен Лоуч, драма, комедия, 2012) [HDRip, Пр ...
  • Доля ангелов / The Angels Share (Кен Лоуч, Драма, комедия, 2012) [HDRip, Пр ...
  • Доля ангелов / The Angels Share (Кен Лоуч, Драма, комедия, 2012) [HDRip-AVC ...
  • Значит, война / This Means War (МакДжи, боевик, мелодрама, комедия, 2012) [ ...
  • Откровения / Elles (Малгожата Шумовска, Драма, 2011) [BDRip 720p, Профессио ...
  • Любовь / Love (Уильям Юбэнк, Фантастика, драма, 2011) [BDRip 720p, Професси ...
  • Семь футов / Seven Below (Кевин Каррауэй, Ужасы, триллер, 2012) [BDRip 720p ...
  • Рок на века / Rock of Ages (Адам Шенкман, Мюзикл, драма, мелодрама, комедия ...
  • Супер Майк / Magic Mike (Стивен Содерберг, Драма, комедия, 2012) [BDRip 720 ...
  • Судный день / The Day (Дуглас Арниокоски, Фантастика, триллер, драма, 2011) ...
  • На Дороге / On The Road (Уолтер Саллес, Драма, приключения, 2012) [BDRip 72 ...
  • Давай, до свидания! / Lola Versus (Дэрил Вейн, Комедия, 2012) [BDRip 720p, ...
  • Патруль / End of Watch (Дэвид Эйр, Триллер, драма, криминал, 2012) [BDRip 7 ...
  • Странная жизнь Тимоти Грина / The Odd Life of Timothy Green (Питер Хеджес, ...
  • Информация
    Посетители, находящиеся в группе Гости, не могут оставлять комментарии к данной публикации.