вход на сайт

Имя пользователя :
Пароль :

Восстановление пароля Регистрация
Цунами 3D / Bait (Кимбл Рендалл, Ужасы, боевик, триллер, 2011) [BDRip 720p, Дубляж, Оригинал (английский), Sub]
Рейтинг:
(голосов: 1)



[img]{THEME}/images/logopost.png[/img]



Цунами 3D / Bait
«Охота началась»


Год выпуска: 2011
Страна:Австралия, Сингапур
Производство: Bait Productions, Blackmagic Design, Blackmagic Design Films
Жанр: Ужасы, боевик, триллер

Режиссёр: Кимбл Рендалл
В ролях: Шарни Винсон, Завьер Сэмюэл, Фиби Тонкин, Джулиан МакМэхон, Кариба Хейн, Алекс Расселл, Линкольн Льюис, Элис Паркинсон, Дэниэл Уилли, Ричард Бранкатисано

Перевод: Дубляж, Оригинал (английский)
Субтитры: English

Описание: Чудовищное цунами обрушивается на курортный город. Из морских глубин на затопленные улицы вырываются голодные и жаждущие крови акулы. Начинается охота. Оказавшись в ловушке стихии, чудом уцелевшие люди пытаются выжить. Сможет ли Джош спасти жизнь девушки, которую он всегда любил, но однажды уже потерял?

Релиз от:



Качество: BDRip 720p [CHD]| Сэмпл
Продолжительность:01:33:17 час.

Формат: MKV
Видео кодек: x264
Аудио кодек: AC3
Видео: 1280x720 (16:9), 23.976 fps, x264 ~6 034 kbps avg, 0.273 bit/pixel
Аудио#1: 48 kHz, AC3 Dolby Digital, 3/2 (L,C,R,l,r) + LFE ch, ~640 kbps(Дубляж)
Аудио#2: 48 kHz, AC3 Dolby Digital, 3/2 (L,C,R,l,r) + LFE ch, ~640 kbps (Оригинал)

Дата премьеры (мир): 5 сентября 2012
Дата премьеры (РФ): 27 сентября 2012, «Каскад», «Премиум Фильм»

MediaInfo| ▼
General
Unique ID : 195774147788525181699693605061092498919 (0x9348BAB717DF3A668B07ED4D5300DDE7)
Complete name : Cunami.2011.D.BDRip.720p.IRONCLUB.mkv
Format : Matroska
Format version : Version 2
File size : 4.76 GiB
Duration : 1h 33mn
Overall bit rate : 7 305 Kbps
Movie name : IRONCLUB
Encoded date : UTC 2012-10-29 20:47:52
Writing application : mkvmerge v4.9.1 (Ich will) сборка от Jul 11 2011 23:53:15
Writing library : libebml v1.2.1 + libmatroska v1.1.1

Video
ID : 1
Format : AVC
Format/Info : Advanced Video Codec
Format profile : [email protected]
Format settings, CABAC : Yes
Format settings, ReFrames : 12 frames
Codec ID : V_MPEG4/ISO/AVC
Duration : 1h 33mn
Bit rate : 6 034 Kbps
Width : 1 280 pixels
Height : 720 pixels
Display aspect ratio : 16:9
Frame rate : 23.976 fps
Color space : YUV
Chroma subsampling : 4:2:0
Bit depth : 8 bits
Scan type : Progressive
Bits/(Pixel*Frame) : 0.273
Stream size : 3.83 GiB (80%)
Title : Bait.2012.BluRay.720p.AC3.x264-CHD
Writing library : x264 core 124 r2197 69a0443
Encoding settings : cabac=1 / ref=12 / deblock=1:-3:-3 / analyse=0x3:0x113 / me=umh / subme=10 / psy=1 / psy_rd=1.10:0.15 / mixed_ref=1 / me_range=32 / chroma_me=1 / trellis=2 / 8x8dct=1 / cqm=0 / deadzone=21,11 / fast_pskip=0 / chroma_qp_offset=-2 / threads=18 / sliced_threads=0 / nr=0 / decimate=1 / interlaced=0 / bluray_compat=0 / constrained_intra=0 / bframes=6 / b_pyramid=2 / b_adapt=2 / b_bias=0 / direct=3 / weightb=1 / open_gop=0 / weightp=2 / keyint=250 / keyint_min=23 / scenecut=40 / intra_refresh=0 / rc_lookahead=60 / rc=2pass / mbtree=0 / bitrate=6034 / ratetol=1.0 / qcomp=0.60 / qpmin=0 / qpmax=69 / qpstep=4 / cplxblur=20.0 / qblur=0.5 / vbv_maxrate=40000 / vbv_bufsize=30000 / nal_hrd=none / ip_ratio=1.40 / pb_ratio=1.30 / aq=1:0.80
Language : English
Default : Yes
Forced : Yes

Audio #1
ID : 2
Format : AC-3
Format/Info : Audio Coding 3
Mode extension : CM (complete main)
Format settings, Endianness : Big
Codec ID : A_AC3
Duration : 1h 33mn
Bit rate mode : Constant
Bit rate : 640 Kbps
Channel(s) : 6 channels
Channel positions : Front: L C R, Side: L R, LFE
Sampling rate : 48.0 KHz
Bit depth : 16 bits
Compression mode : Lossy
Stream size : 427 MiB (9%)
Title : DD 5.1 @ 640 kbps - Dub, BD RUS
Language : Russian
Default : Yes
Forced : Yes

Audio #2
ID : 3
Format : AC-3
Format/Info : Audio Coding 3
Mode extension : CM (complete main)
Format settings, Endianness : Big
Codec ID : A_AC3
Duration : 1h 33mn
Bit rate mode : Constant
Bit rate : 640 Kbps
Channel(s) : 6 channels
Channel positions : Front: L C R, Side: L R, LFE
Sampling
06ccda2f972884e538b547867026445a766bc99b Цунами 3D / Bait (Кимбл Рендалл, Ужасы, боевик, триллер, 2011) [BDRip 720p, Дубляж, Оригинал (английский), Sub] Цунами 3D / Bait (Кимбл Рендалл, Ужасы, боевик, триллер, 2011) [BDRip 720p, Дубляж, Оригинал (английский), Sub] " />

Аплоадер: Админ, дата: 30-10-2012, 07:56, торрент скачан: 359 раз

Понравилась раздача? Посмотрите эти:
  • Толстяк на ринге / Here Comes the Boom (Фрэнк Корачи, Боевик, комедия, 201 ...
  • Черный дрозд / Deadfall (Штефан Руцовицки, Триллер, драма, криминал, 2012) ...
  • Цунами 3D / Bait (Кимбл Рендалл, ужасы, боевик, триллер, 2011) [HDRip-AVC, ...
  • Цунами 3D / Bait (Кимбл Рендалл, ужасы, боевик, триллер, 2011) [BDRip-AVC, ...
  • Цунами 3D / Bait (Кимбл Рендалл, Ужасы, боевик, триллер, 2011) [HDRip-AVC, ...
  • [3D] Цунами 3D трейлер / Bait 3D trailer (Кимбл Рендалл / Kimble Rendall, У ...
  • [3D] Цунами / Bаit (Кимбл Рендалл / Kimble Rendall, Ужасы, Триллер, Боевик, ...
  • Экстрасенс / The Awakening (Ник Мерфи, ужасы, триллер, 2011) [BDRip 720p, Д ...
  • «Весёлые» каникулы / Get the Gringo (Адриан Грюнберг, Боевик, комедия, 2012 ...
  • Ворон / The Raven (Джеймс МакТиг, Триллер, детектив, 2012) [BDRip 720p, Дуб ...
  • Пираньи 3DD / Piranha 3DD (Джон Гулажер, ужасы, триллер, комедия, 2012) [BD ...
  • Семь футов / Seven Below (Кевин Каррауэй, Ужасы, триллер, 2012) [BDRip 720p ...
  • Красные огни / Red Lights (Родриго Кортес, Ужасы, триллер, драма, 2012) [BD ...
  • Медальон / Stolen (Саймон Уэст, Боевик, триллер, 2012) [BDRip 720p, Дубляж, ...
  • Мадагаскар 3 / Madagascar 3: Europes Most Wanted (Эрик Дарнелл, Том МакГрат ...
  • Супер Майк / Magic Mike (Стивен Содерберг, Драма, комедия, 2012) [BDRip 720 ...
  • Москва 2017 / Branded (Джейми Брэдшоу, Александр Дулерайн, фантастика, трил ...
  • На Дороге / On The Road (Уолтер Саллес, Драма, приключения, 2012) [BDRip 72 ...
  • Патруль / End of Watch (Дэвид Эйр, Триллер, драма, криминал, 2012) [BDRip 7 ...
  • Явление / The Apparition (Тодд Линкольн, Ужасы, триллер, 2012) [BDRip 720p, ...
  • Странная жизнь Тимоти Грина / The Odd Life of Timothy Green (Питер Хеджес, ...
  • [3D] Цунами 3D / Bait (Кимбл Рендалл, Ужасы, боевик, триллер, 2011) [Blu-ra ...
  • Цунами 3D / Bait (Кимбл Рендалл, Ужасы, боевик, триллер, 2011) [HDRip, Дуб ...
  • Цунами 3D / Bait (Кимбл Рендалл, Ужасы, боевик, триллер, 2011) [HDRip, Дуб ...
  • Цунами 3D / Bait (Кимбл Рендалл, Ужасы, Боевик, Триллер, 2011) [320x240] [H ...
  • Информация
    Посетители, находящиеся в группе Гости, не могут оставлять комментарии к данной публикации.