вход на сайт

Имя пользователя :
Пароль :

Восстановление пароля Регистрация
Папа-Досвидос [Театральная версия] / Thats My Boy [Theatrical Cut] (Шон Андерс, Комедия, 2012) [BD-Remux 1080p, Дубляж, Оригинал (английский), Ukrainian, Sub]
Рейтинг:
(голосов: 1)



[img]{THEME}/images/logopost.png[/img]



Папа-Досвидос [Театральная версия] / Thats My Boy [Theatrical Cut]
«Пиво и другие семейные ценности»


Год выпуска: 2012
Страна: США
Производство: Columbia Pictures, Happy Madison Productions
Жанр: Комедия

Режиссёр: Шон Андерс
В ролях: Адам Сэндлер, Энди Сэмберг, Лейтон Мистер, Майло Вентимилья, Ванилла Айс, Пегги Стюарт, Блейк Кларк, Меган Фэй, Тони Орландо, Джеймс Каан

Перевод: Дубляж, Оригинал (английский), Ukrainian
Субтитры: Русские, украинские

Описание: Переспав с «очень плохой училкой» прямо в школе, тинейджер становится отцом «по залету», а его зрелая пассия попадает в тюрьму за совращение малолетнего. Теперь юный папа-одиночка вынужден заботиться о сыне до его совершеннолетия, а затем благополучно исчезает в неизвестном направлении. И вот, много лет спустя, оказавшись на мели, эксцентричный папаша-инфантил словно ураган врывается в жизнь сына накануне его свадьбы и своими безумными выходками переворачивает всё вверх дном.



Качество: BD-Remux 1080p | Сэмпл
Продолжительность:01:54:27. час.

Формат:MKV
Видео кодек: x264
Аудио кодек: AC3, DTS-HD Master Audio
Видео: 1920x1080 (16:9), 23.976 fps, x264 ~26,2 mb/s, 0.527 bit/pixel
Аудио#1: 48 kHz, AC3 Dolby Digital, 3/2 (L,C,R,l,r) + LFE ch, ~640 kbps - (Дубляж)
Аудио#2: 48 kHz, AC3 Dolby Digital, 3/2 (L,C,R,l,r) + LFE ch, ~448 kbps (Ukrainian)
Аудио#3: DTS-HD Master Audio3410 kbps5.1 / 48 kHz / 3410 kbps / 24-bit (DTS Core: 5.1 / 48 kHz / 1509 kbps / 24-bit) (Оригинал)

Дата премьеры (мир): 4 июня 2012
Дата премьеры (РФ): 19 июля 2012, «WDSSPR»

MediaInfo ▼Общее
Уникальный идентификатор : 170384121871658279557935936910507269452 (0x802EC9C9D6E40411952AB28B89EA5D4C)
Полное имя : Z:/BLU-RAY REMUXPapa-dosvidos.(Teatralnaja.versija).2012.MPEG-4-AVC.BluRay-Remux(1080p).mkv
Формат : Matroska
Версия формата : Version 2
Размер файла : 23,5 Гбайт
Продолжительность : 1 ч. 54 м.
Режим общего битрейта : Переменный
Общий поток : 29,4 Мбит/сек
Название фильма : --SCHUMAHER--
Дата кодирования : UTC 2012-10-26 18:29:18
Программа кодирования : mkvmerge v5.8.0 (No Sleep / Pillow) built on Sep 2 2012 15:37:04
Библиотека кодирования : libebml v1.2.3 + libmatroska v1.3.0

Видео
Идентификатор : 1
Формат : AVC
Формат/Информация : Advanced Video Codec
Профиль формата : [email protected]
Параметр CABAC формата : Да
Параметр ReFrames формата : 2 кадра
Параметр GOP формата : M=1, N=10
Идентификатор кодека : V_MPEG4/ISO/AVC
Продолжительность : 1 ч. 54 м.
Вид битрейта : Переменный
Битрейт : 26,2 Мбит/сек
Ширина : 1920 пикселей
Высота : 1080 пикселей
Соотношение сторон : 16:9
Частота кадров : 23,976 кадра/сек
Цветовое пространство : YUV
Субдискретизация насыщенности : 4:2:0
Битовая глубина : 8 бит
Тип развёртки : Прогрессивная
Бит/(Пиксели*Кадры) : 0.527
Размер потока : 20,9 Гбайт (89%)
Язык : English
Default : Да
Forced : Да

Аудио #1
Идентификатор : 2
Формат : AC-3
Формат/Информация : Audio Coding 3
Расширение режима : CM (complete main)
Параметр Endianness формата : Big
Идентификатор кодека : A_AC3
Продолжительность : 1 ч. 54 м.
Вид битрейта : Постоянный
Битрейт : 640 Кбит/сек
Каналы : 6 каналов
Расположение каналов : Front: L C R, Side: L R, LFE
Частота : 48,0 КГц
Битовая глубина : 16 бит
Метод сжатия : С потерями
Размер потока : 524 Мбайт (2%)
Язык : Russian
Default : Да
Forced : Да

Аудио #2
Идентификатор : 3
Формат : AC-3
Формат/Информация : Audio Coding 3
Расширение режима : CM (complete main)
Параметр Endianness формата : Big
Идентификатор кодека : A_AC3
Продолжительность : 1 ч. 54 м.
Вид битрейта : Постоянный
Битрейт : 448 Кбит/сек
Каналы : 6 каналов
Расположение каналов : Front: L C R, Side: L R, LFE
Частота : 48,0 КГц
Битовая глубина : 16 бит
Метод сжатия : С потерями
Размер потока : 367 Мбайт (2%)
Язык : Ukrainian
Default : Нет
Forced : Нет

Аудио #3
Идентификатор : 4
Формат : DTS
Формат/Информация : Digital Theater Systems
Профиль формата : MA / Core
Иден
dbb87be8b60154dcdc10b6ed4318530686d17b6cПапа-Досвидос [Театральная версия] / Thats My Boy [Theatrical Cut] (Шон Андерс, Комедия, 2012) [BD-Remux 1080p, Дубляж, Оригинал (английский), Ukrainian, Sub] Папа-Досвидос [Театральная версия] / Thats My Boy [Theatrical Cut] (Шон Андерс, Комедия, 2012) [BD-Remux 1080p, Дубляж, Оригинал (английский), Ukrainian, Sub] " />

Аплоадер: Админ, дата: 27-10-2012, 14:53, торрент скачан: 359 раз

Понравилась раздача? Посмотрите эти:
  • Поймай толстуху, если сможешь [Театральная версия] / Identity Thief [Theatr ...
  • G.I. Joe: Бросок кобры 2 [Театральная версия] / G.I. Joe: Retaliation [Thea ...
  • Папа-досвидос / Thats My Boy (Шон Андерс, Комедия, 2012) [HDRip, Профессион ...
  • Папа-Досвидос [Расширенная версия] / Thats My Boy [UNRATED] (Шон Андерс, К ...
  • Папа-Досвидос [Расширенная версия] / Thats My Boy [UNRATED] (Шон Андерс, К ...
  • Папа-досвидос / Thats My Boy [Theatrical Cut] (Шон Андерс, комедия, 2012) [ ...
  • Папа-Досвидос [Расширенная версия] / Thats My Boy [UNRATED] (Шон Андерс, Ко ...
  • Папа-досвидос [Расширенная версия] / Thats My Boy [UNRATED] (Шон Андерс, ко ...
  • Папа-досвидос [Расширенная версия] / Thats My Boy [UNRATED] (Шон Андерс, ко ...
  • Папа-Досвидос [Театральная версия] / Thats My Boy [Theatrical Cut] (Шон Анд ...
  • Папа-Досвидос [Театральная версия] / Thats My Boy [Theatrical Cut] (Шон Анд ...
  • Папа-Досвидос [Театральная версия] / Thats My Boy [Theatrical Cut] (Шон Анд ...
  • Папа-Досвидос [Театральная версия] / Thats My Boy [Theatrical Cut] (Шон Анд ...
  • Папа-Досвидос [Театральная версия] / Thats My Boy [Theatrical Cut] (Шон Анд ...
  • Папа-Досвидос / Thats My Boy (Шон Андерс, Комедия, 2012) [DVD9, Дубляж, Ор ...
  • Диктатор / The Dictator (Ларри Чарльз, Комедия, 2012) [BD-Remux 1080p, Дубл ...
  • Счастливчик / The Lucky One (Скотт Хикс, Драма, мелодрама, 2012) [BD-Remux ...
  • Папа-Досвидос [Расширенная версия] / Thats My Boy [UNRATED] (Шон Андерс, К ...
  • Ищу друга на конец света / Seeking a Friend for the End of the World (Лорен ...
  • Супер Майк / Magic Mike (Стивен Содерберг, Драма, комедия, 2012) [BD-Remux ...
  • Папа-Досвидос [Театральная версия] / Thats My Boy [Theatrical Cut] (Шон Анд ...
  • Папа-Досвидос [Театральная версия] / Thats My Boy [Theatrical Cut] (Шон Анд ...
  • Папа-досвидос / Thats My Boy (Шон Андерс / Sean Anders, 2012) [США, комедия ...
  • Папа-досвидос / Thats My Boy [Theatrical Cut] (Шон Андерс, Комедия, 2012) [ ...
  • Папа-досвидос / Thats My Boy [Theatrical Cut] (Шон Андерс, Комедия, 2012) [ ...
  • Информация
    Посетители, находящиеся в группе Гости, не могут оставлять комментарии к данной публикации.