вход на сайт

Имя пользователя :
Пароль :

Восстановление пароля Регистрация
Новый Человек-паук / The Amazing Spider-Man (Марк Уэбб, Фантастика, боевик, приключения, 2012) [BDRip 1080p, Дубляж, Оригинал (английский), Ukrainian, Sub]
Рейтинг:
(голосов: 1)



[img]{THEME}/images/logopost.png[/img]



Новый Человек-паук / The Amazing Spider-Man
«Новый герой, новая история, новая любовь»


Год выпуска: 2012
Страна: США
Производство: Columbia Pictures, Laura Ziskin Productions, Marvel Enterprises, Marvel Studios Inc.
Жанр: Фантастика, боевик, приключения

Режиссёр: Марк Уэбб
В ролях: Эндрю Гарфилд, Эмма Стоун, Рис Иванс, Дэнис Лири, Мартин Шин, Салли Филд, Эмбет Дэвидц, Кэмпбелл Скотт, Ирфан Кхан, Крис Зилка

Перевод: Дубляж, Оригинал (английский), Ukrainian
Субтитры:Russian, English

Описание: В детстве Питер Паркер был оставлен своими родителями, и поэтому воспитывался дядей и тётей. Шли годы, Питер был обычным примерным школьником, подвергался нападкам хулиганов и был влюблён в свою одноклассницу Гвен Стейси, которая сама втайне отвечала ему взаимностью. Но после укуса генетически изменённого паука, Питер получает невероятные сверхспособности и его жизнь меняется навсегда.

Релиз от:




Качество: BDRip 1080p | Сэмпл |
Продолжительность: 02:16:17 час.

Формат: MKV
Видео кодек: x264
Аудио кодек: AC3, DTS
Видео: 1920x800 (2.40:1), 23.976 fps, x264 11.8~mb/s, 0.320 bit/pixel
Аудио#1: 48 kHz, AC3 Dolby Digital, 3/2 (L,C,R,l,r) + LFE ch, ~640 kbps(Дубляж)
Аудио#2: 48 kHz, AC3 Dolby Digital, 3/2 (L,C,R,l,r) + LFE ch, ~640 kbps (Ukrainian)
Аудио#3: 48 kHz/24-bit, DTS, 3/2 (L,C,R,l,r) + LFE ch, ~1510.00 kbps avg (Оригинал)

Дата премьеры (мир): 13 июня 2012
Дата премьеры (РФ): 5 июля 2012, «WDSSPR»

MediaInfo ▼
General
Unique ID : 179288903411091952265981269755159181230 (0x86E1C96A415BA76FA55416694D9CF7AE)
Complete name : Novyj.Chelovek.pauk.2012.D.BDRip.1080p.IRONCLUB.mkv
Format : Matroska
Format version : Version 2
File size : 13.9 GiB
Duration : 2h 16mn
Overall bit rate : 14.6 Mbps
Encoded date : UTC 2012-10-26 20:21:15
Writing application : mkvmerge v4.9.1 (Ich will) сборка от Jul 11 2011 23:53:15
Writing library : libebml v1.2.1 + libmatroska v1.1.1

Video
ID : 1
Format : AVC
Format/Info : Advanced Video Codec
Format profile : [email protected]
Format settings, CABAC : Yes
Format settings, ReFrames : 5 frames
Codec ID : V_MPEG4/ISO/AVC
Duration : 2h 16mn
Bit rate : 11.8 Mbps
Width : 1 920 pixels
Height : 800 pixels
Display aspect ratio : 2.40:1
Frame rate : 23.976 fps
Color space : YUV
Chroma subsampling : 4:2:0
Bit depth : 8 bits
Scan type : Progressive
Bits/(Pixel*Frame) : 0.320
Stream size : 11.0 GiB (79%)
Title : The.Amazing.Spider-Man.2012.1080p.BluRay.x264.DTS-HDChina
Writing library : x264 core 128 r2216+688+33 06dac27 tMod+MixAQ [[email protected]:2:0 X86_64]
Encoding settings : cabac=1 / ref=5 / deblock=1:-3:-3 / analyse=0x3:0x113 / me=umh / subme=11 / psy=1 / fade_compensate=0.00 / psy_rd=1.00:0.00 / mixed_ref=1 / me_range=48 / chroma_me=1 / trellis=2 / 8x8dct=1 / cqm=0 / deadzone=21,11 / fast_pskip=0 / chroma_qp_offset=-2 / threads=18 / lookahead_threads=3 / sliced_threads=0 / nr=0 / decimate=0 / interlaced=0 / bluray_compat=0 / constrained_intra=0 / fgo=0 / bframes=8 / b_pyramid=2 / b_adapt=2 / b_bias=0 / direct=3 / weightb=1 / open_gop=0 / weightp=2 / keyint=240 / keyint_min=24 / scenecut=40 / intra_refresh=0 / rc_lookahead=240 / rc=2pass / mbtree=1 / bitrate=11800 / ratetol=1.0 / qcomp=0.70 / qpmin=0 / qpmax=69 / qpstep=4 / cplxblur=20.0 / qblur=0.5 / ip_ratio=1.10 / aq=4 / aq-strength=0.95 / aq-sensitivity=10.00 / aq-ifactor=1.00 / aq-pfactor=1.00 / aq-bfactor=1.00 / aq2=0
Language : English
Default : Yes
Forced : Yes

Audio #1
ID : 2
Format : AC-3
Format/Info : Audio Coding 3
Mode extension : CM (complete main)
Format settings, Endianness : Big
Codec ID : A_AC3
Duration : 2h 16mn
Bit rate mode : Constant
Bit rate : 640 Kbps
Channel(s) : 6 channels
Channel positions : Front: L C R, Side: L R, LFE
Sampling rate : 48.0 KHz
Bit depth : 16 bits
Compression mode : Lossy
Stream size : 624 MiB (4%)
Title : DD 5.1 @ 640 kbps - Dub, BD CEE
Language : Russi
7982a35118a4f6a0ead371a00bdb07d28f08f40aНовый Человек-паук / The Amazing Spider-Man (Марк Уэбб, Фантастика, боевик, приключения, 2012) [BDRip 1080p, Дубляж, Оригинал (английский), Ukrainian, Sub] Новый Человек-паук / The Amazing Spider-Man (Марк Уэбб, Фантастика, боевик, приключения, 2012) [BDRip 1080p, Дубляж, Оригинал (английский), Ukrainian, Sub] " />

Аплоадер: Админ, дата: 27-10-2012, 08:03, торрент скачан: 359 раз

Понравилась раздача? Посмотрите эти:
  • Новый Человек-паук / The Amazing Spider-Man (Марк Уэбб, Фантастика, боевик, ...
  • Новый Человек-паук / The Amazing Spider-Man (Марк Уэбб, Фантастика, боевик, ...
  • Новый Человек-паук / The Amazing Spider-Man (Марк Уэбб, Фантастика, боевик, ...
  • Новый Человек-паук / The Amazing Spider-Man (Марк Уэбб, фантастика, боевик, ...
  • Новый Человек-паук / The Amazing Spider-Man (Марк Уэбб, Фантастика, боевик, ...
  • Новый Человек-паук / The Amazing Spider-Man (Марк Уэбб, Фантастика, боевик, ...
  • Новый Человек-паук / The Amazing Spider-Man (Марк Уэбб, фантастика, боевик, ...
  • Новый Человек-паук / The Amazing Spider-Man (Марк Уэбб, фантастика, боевик, ...
  • Новый Человек-паук / The Amazing Spider-Man (Марк Уэбб, Фантастика, боевик, ...
  • [3D] Новый Человек-паук / The Amazing Spider-Man (Марк Уэбб, фантастика, бо ...
  • [3D] Новый Человек-паук / The Amazing Spider-Man (Марк Уэбб, фантастика, бо ...
  • Новый Человек-паук / The Amazing Spider-Man (Марк Уэбб, Фантастика, 2012) [ ...
  • Новый Человек-паук / The Amazing Spider-Man (Марк Уэбб, Фантастика, боевик, ...
  • Новый Человек-паук / The Amazing Spider-Man (Марк Уэбб, Фантастика, боевик, ...
  • [Phone, iPod] Новый Человек-паук / The Amazing Spider-Man (Марк Уэбб, фанта ...
  • Новый Человек-Паук / The Amazing Spider-Man (Марк Уэбб, Фантастика, Боевик, ...
  • Новый Человек-Паук / The Amazing Spider-Man (Марк Уэбб, Фантастика, Боевик, ...
  • Новый Человек-Паук / The Amazing Spider-Man (Марк Уэбб, Фантастика, Боевик, ...
  • Новый Человек-паук / The Amazing Spider-Man (Марк Уэбб, Фантастика, боевик, ...
  • Новый Человек-паук / The Amazing Spider-Man (Марк Уэбб, Фантастика, боевик, ...
  • Новый Человек-паук / The Amazing Spider-Man (Марк Уэбб, Фантастика, боевик, ...
  • Новый Человек-паук / The Amazing Spider-Man (Марк Уэбб, Фантастика, боевик, ...
  • [3D] Новый Человек-паук / The Amazing Spider-Man (Марк Уэбб, фантастика, бо ...
  • Новый Человек-паук / The Amazing Spider-Man (Марк Уэбб, фантастика, боевик, ...
  • [Доп. материалы] Новый Человек-паук / The Amazing Spider-Man Bonus (Марк У ...
  • Информация
    Посетители, находящиеся в группе Гости, не могут оставлять комментарии к данной публикации.