вход на сайт

Имя пользователя :
Пароль :

Восстановление пароля Регистрация
Новый Человек-паук / The Amazing Spider-Man (Марк Уэбб, Фантастика, боевик, приключения, 2012) [BD-Remux 1080p, Дубляж, Оригинал (английский), Ukrainian, Sub]
Рейтинг:
(голосов: 1)



[img]{THEME}/images/logopost.png[/img]



Новый Человек-паук / The Amazing Spider-Man
«Новый герой, новая история, новая любовь»


Год выпуска:2012
Страна: СЩА
Производство: Columbia Pictures, Laura Ziskin Productions, Marvel Enterprises, Marvel Studios Inc.
Жанр: Фантастика, боевик, приключения

Режиссёр: Марк Уэбб
В ролях: Эндрю Гарфилд, Эмма Стоун, Рис Иванс, Дэнис Лири, Мартин Шин, Салли Филд, Эмбет Дэвидц, Кэмпбелл Скотт, Ирфан Кхан, Крис Зилка

Перевод: Дубляж, Оригинал (английский), Ukrainian
Субтитры:Русские, английские

Описание: В детстве Питер Паркер был оставлен своими родителями, и поэтому воспитывался дядей и тётей. Шли годы, Питер был обычным примерным школьником, подвергался нападкам хулиганов и был влюблён в свою одноклассницу Гвен Стэйси, которая сама втайне отвечала ему взаимностью. Но после укуса генетически изменённого паука, Питер получает невероятные сверхспособности и его жизнь меняется навсегда.
Однако его не перестаёт мучить вопрос о том, что случилось с его родителями. Он знакомится с давним другом и партнёром своего отца - генетиком Куртом Коннорсом, который вместе с отцом Питера разрабатывал формулу регенерации. Питер помогает её закончить, а Коннорс, всю жизнь мечтавший восстановить свою правую руку, вводит формулу себе и становится Ящером. Осознавая свою вину, Питер начинает новую жизнь в образе таинственного супергероя Человека-паука и становится грозой преступников, одновременно пытаясь найти способ остановить Коннорса.



Качество: BD-Remux 1080p | Сэмпл
Продолжительность:02:16:17. час.


Формат: MKV
Видео кодек: x264
Аудио кодек: AC3, DTS-HD Master Audio
Видео: 1920x1080 (16:9), 23.976 fps, x264 ~25,1 mb/s, 0.504 bit/pixel
Аудио#1: 48 kHz, AC3 Dolby Digital, 3/2 (L,C,R,l,r) + LFE ch, ~640 kbps (Дубляж)
Аудио#2: 48 kHz, AC3 Dolby Digital, 3/2 (L,C,R,l,r) + LFE ch, ~640 kbps (Ukrainian)
Аудио#3: DTS-HD Master Audio2321 kbps 5.1 / 48 kHz / 2321 kbps / 16-bit (DTS Core: 5.1 / 48 kHz / 1509 kbps / 16-bit) (Оригинал)


Дата премьеры (мир): 13 июня 2012
Дата премьеры (РФ): 30 октября 2012, «Columbia/Sony»


MediaInfo ▼Общее
Уникальный идентификатор : 193871609923044803793242224840256694023 (0x91DA505B3571D6E09661CD28AFEAA707)
Полное имя : Z:BLU-RAY REMUXNovyj.Chelovek-pauk.2012.MPEG-4-AVC.BluRay-Remux(1080p).mkv
Формат : Matroska
Версия формата : Version 2
Размер файла : 27,6 Гбайт
Продолжительность : 2 ч. 16 м.
Режим общего битрейта : Переменный
Общий поток : 29,0 Мбит/сек
Название фильма : --SCHUMAHER--
Дата кодирования : UTC 2012-10-25 20:53:19
Программа кодирования : mkvmerge v5.8.0 (No Sleep / Pillow) built on Sep 2 2012 15:37:04
Библиотека кодирования : libebml v1.2.3 + libmatroska v1.3.0

Видео
Идентификатор : 1
Формат : AVC
Формат/Информация : Advanced Video Codec
Профиль формата : [email protected]
Параметр CABAC формата : Да
Параметр ReFrames формата : 2 кадра
Идентификатор кодека : V_MPEG4/ISO/AVC
Продолжительность : 2 ч. 16 м.
Вид битрейта : Переменный
Битрейт : 25,1 Мбит/сек
Ширина : 1920 пикселей
Высота : 1080 пикселей
Соотношение сторон : 16:9
Частота кадров : 23,976 кадра/сек
Цветовое пространство : YUV
Субдискретизация насыщенности : 4:2:0
Битовая глубина : 8 бит
Тип развёртки : Прогрессивная
Бит/(Пиксели*Кадры) : 0.504
Размер потока : 23,9 Гбайт (86%)
Язык : English
Default : Да
Forced : Да

Аудио #1
Идентификатор : 2
Формат : AC-3
Формат/Информация : Audio Coding 3
Расширение режима : CM (complete main)
Параметр Endianness формата : Big
Идентификатор кодека : A_AC3
Продолжительность : 2 ч. 16 м.
Вид битрейта : Постоянный
Битрейт : 640 Кбит/сек
Каналы : 6 каналов
Расположение каналов : Front: L C R, Side: L R, LFE
Частота : 48,0 КГц
Битовая глубина : 16 бит
Метод сжатия : С потерями
Размер потока : 624 Мбайт (2%)
Язык : Russian
Default : Да
Forced : Да

Аудио #2
Идентификатор : 3
Формат : AC-3
Формат/Информация : Audio Coding 3
Расширение р
704abc8ac12e1857e28c67152eeb8329617e7e01Новый Человек-паук / The Amazing Spider-Man (Марк Уэбб, Фантастика, боевик, приключения, 2012) [BD-Remux 1080p, Дубляж, Оригинал (английский), Ukrainian, Sub] Новый Человек-паук / The Amazing Spider-Man (Марк Уэбб, Фантастика, боевик, приключения, 2012) [BD-Remux 1080p, Дубляж, Оригинал (английский), Ukrainian, Sub] " />

Аплоадер: Админ, дата: 26-10-2012, 22:42, торрент скачан: 359 раз

Понравилась раздача? Посмотрите эти:
  • Новый Человек-паук / The Amazing Spider-Man (Марк Уэбб, Фантастика, боевик, ...
  • Новый Человек-паук / The Amazing Spider-Man (Марк Уэбб, Фантастика, боевик, ...
  • Новый Человек-паук / The Amazing Spider-Man (Марк Уэбб, Фантастика, боевик, ...
  • Новый Человек-паук / The Amazing Spider-Man (Марк Уэбб, фантастика, боевик, ...
  • Новый Человек-паук / The Amazing Spider-Man (Марк Уэбб, Фантастика, боевик, ...
  • Новый Человек-паук / The Amazing Spider-Man (Марк Уэбб, Фантастика, боевик, ...
  • Новый Человек-паук / The Amazing Spider-Man (Марк Уэбб, фантастика, боевик, ...
  • Новый Человек-паук / The Amazing Spider-Man (Марк Уэбб, фантастика, боевик, ...
  • Новый Человек-паук / The Amazing Spider-Man (Марк Уэбб, Фантастика, боевик, ...
  • [3D] Новый Человек-паук / The Amazing Spider-Man (Марк Уэбб, фантастика, бо ...
  • [3D] Новый Человек-паук / The Amazing Spider-Man (Марк Уэбб, фантастика, бо ...
  • Новый Человек-паук / The Amazing Spider-Man (Марк Уэбб, Фантастика, 2012) [ ...
  • Новый Человек-паук / The Amazing Spider-Man (Марк Уэбб, Фантастика, боевик, ...
  • Новый Человек-паук / The Amazing Spider-Man (Марк Уэбб, Фантастика, боевик, ...
  • [Phone, iPod] Новый Человек-паук / The Amazing Spider-Man (Марк Уэбб, фанта ...
  • Новый Человек-Паук / The Amazing Spider-Man (Марк Уэбб, Фантастика, Боевик, ...
  • Новый Человек-Паук / The Amazing Spider-Man (Марк Уэбб, Фантастика, Боевик, ...
  • Новый Человек-Паук / The Amazing Spider-Man (Марк Уэбб, Фантастика, Боевик, ...
  • Новый Человек-паук / The Amazing Spider-Man (Марк Уэбб, Фантастика, боевик, ...
  • Новый Человек-паук / The Amazing Spider-Man (Марк Уэбб, Фантастика, боевик, ...
  • Новый Человек-паук / The Amazing Spider-Man (Марк Уэбб, Фантастика, боевик, ...
  • Новый Человек-паук / The Amazing Spider-Man (Марк Уэбб, Фантастика, боевик, ...
  • [3D] Новый Человек-паук / The Amazing Spider-Man (Марк Уэбб, фантастика, бо ...
  • Новый Человек-паук / The Amazing Spider-Man (Марк Уэбб, фантастика, боевик, ...
  • [Доп. материалы] Новый Человек-паук / The Amazing Spider-Man Bonus (Марк У ...
  • Информация
    Посетители, находящиеся в группе Гости, не могут оставлять комментарии к данной публикации.