вход на сайт

Имя пользователя :
Пароль :

Восстановление пароля Регистрация
Супер Майк / Magic Mike (Стивен Содерберг, Драма, комедия, 2012) [BD-Remux 1080p, Дубляж, Оригинал (английский), Sub]
Рейтинг:
(голосов: 1)



[img]{THEME}/images/logopost.png[/img]



Супер Майк / Magic Mike
«Они делают это за деньги»


Год выпуска: 2012
Страна: США
Производство: Extension 765, Iron Horse Entertainment (II), Nick Wechsler Productions
Жанр: Драма, комедия

Режиссёр: Стивен Содерберг
В ролях: Ченнинг Татум, Алекс Петтифер, Мэттью МакКонахи, Мэтт Бомер, Джо Манганьелло, Кевин Нэш, Оливия Манн, Джеймс Мартин Келли, Коуди Хорн, Рейд Каролин

Перевод: Дубляж, Оригинал (английский)
Субтитры: English

Описание: Это фильм о настоящей мужской дружбе в мире стриптизеров. Главный герой — танцор, который обучает молодого парня, как необходимо вести себя на сцене и около шеста.



Качество: BD-Remux 1080p| Сэмпл
Продолжительность:01:50:28 час.


Формат: MKV
Видео кодек: x264
Аудио кодек: AC3, DTS-HD Master Audio
Видео: 1920x1080 (16:9), 23.976 fps, x264 ~28,0 mb/s, 0.564 bit/pixel
Аудио#1: 48 kHz, AC3 Dolby Digital, 3/2 (L,C,R,l,r) + LFE ch, ~384 kbps (Дубляж)
Аудио#2: DTS-HD Master Audio 4064 kbps 5.1 / 48 kHz / 4064 kbps / 24-bit (DTS Core: 5.1 Ch / 48 kHz / 1510 kbps / 24-bit) (Оригинал)

Дата премьеры (мир): 28 июня 2012
Дата премьеры (РФ): 28 июня 2012, «Top Film Distribution»

MediaInfo ▼Общее
Уникальный идентификатор : 201159916537934088653426273414166681661 (0x9755FD9DAB343DD8BB27955EF3AD183D)
Полное имя : C:Magic Mike.2012.BDRemux.1080p.mkv
Формат : Matroska
Версия формата : Version 2
Размер файла : 23,6 Гбайт
Продолжительность : 1 ч. 50 м.
Режим общего битрейта : Переменный
Общий поток : 30,6 Мбит/сек
Дата кодирования : UTC 2012-10-14 11:04:01
Программа кодирования : mkvmerge v5.8.0 (No Sleep / Pillow) built on Sep 2 2012 15:37:04
Библиотека кодирования : libebml v1.2.3 + libmatroska v1.3.0

Видео
Идентификатор : 1
Формат : AVC
Формат/Информация : Advanced Video Codec
Профиль формата : [email protected]
Параметр CABAC формата : Да
Параметр ReFrames формата : 2 кадра
Параметр GOP формата : M=1, N=10
Идентификатор кодека : V_MPEG4/ISO/AVC
Продолжительность : 1 ч. 50 м.
Вид битрейта : Переменный
Битрейт : 28,0 Мбит/сек
Ширина : 1920 пикселей
Высота : 1080 пикселей
Соотношение сторон : 16:9
Режим частоты кадров : Постоянный
Частота кадров : 23,976 кадра/сек
Цветовое пространство : YUV
Субдискретизация насыщенности : 4:2:0
Битовая глубина : 8 бит
Тип развёртки : Прогрессивная
Бит/(Пиксели*Кадры) : 0.564
Размер потока : 21,6 Гбайт (92%)
Язык : English
Default : Да
Forced : Нет

Аудио #1
Идентификатор : 2
Формат : AC-3
Формат/Информация : Audio Coding 3
Расширение режима : CM (complete main)
Параметр Endianness формата : Big
Идентификатор кодека : A_AC3
Продолжительность : 1 ч. 50 м.
Вид битрейта : Постоянный
Битрейт : 384 Кбит/сек
Каналы : 6 каналов
Расположение каналов : Front: L C R, Side: L R, LFE
Частота : 48,0 КГц
Битовая глубина : 16 бит
Метод сжатия : С потерями
Размер потока : 303 Мбайт (1%)
Заголовок : Дублированный
Язык : Russian
Default : Да
Forced : Нет

Аудио #2
Идентификатор : 3
Формат : DTS
Формат/Информация : Digital Theater Systems
Профиль формата : MA / Core
Идентификатор кодека : A_DTS
Продолжительность : 1 ч. 50 м.
Вид битрейта : Переменный
Битрейт : 1561 Кбит/сек / 1510 Кбит/сек
Каналы : 6 каналов
Расположение каналов : Front: L C R, Side: L R, LFE
Частота : 48,0 КГц
Битовая глубина : 24 бит
Метод сжатия : Без потерь / Lossy
Заголовок : Original
Язык : English
Default : Нет
Forced : Нет

Текст
Идентификатор : 4
Формат : UTF-8
Идентификатор кодека : S_TEXT/UTF8
Идентификатор кодека/Информация : UTF-8 Plain Text
Заголовок : Original
Язык : English
Default : Нет
Forced : Нет

Меню
00:00:00.000 : en:Chapter 00
00:04:31.854 : en:Chapter 01
00:10:30.379 : en:Chapter 02
00:16:08.509 : en:Chapter 03
00:21:07.182 : en:Chapter 04
00:26:17.867 : en:Chapter 05
00:33:15.326 : en:Chapter 06
00:37:25.284 : en:Chapter 07
00:42:12.154 : en:Chapter 08
00:46:13.353 : en:Chapter 09
00:49:47.776
adc4c41109b5415e2f23f7f06c44cf9662159f30Супер Майк / Magic Mike (Стивен Содерберг, Драма, комедия, 2012) [BD-Remux 1080p, Дубляж, Оригинал (английский), Sub] Супер Майк / Magic Mike (Стивен Содерберг, Драма, комедия, 2012) [BD-Remux 1080p, Дубляж, Оригинал (английский), Sub] " />

Аплоадер: Админ, дата: 18-10-2012, 16:46, торрент скачан: 359 раз

Понравилась раздача? Посмотрите эти:
  • 21 и больше / 21 & Over (Джон Лукас, Скотт Мур, Комедия, 2013) [BD-Remux 10 ...
  • Поймай толстуху, если сможешь [Театральная версия] / Identity Thief [Theatr ...
  • G.I. Joe: Бросок кобры 2 [Театральная версия] / G.I. Joe: Retaliation [Thea ...
  • Игровая комната / The Playroom (Джулия Дайер, драма, 2012) [HDRip, Оригинал ...
  • Супер Майк / Magic Mike (Стивен Содерберг, Драма, комедия, 2012) [DVDRip-AV ...
  • Супер Майк / Magic Mike (Стивен Содерберг, Драма, комедия, 2012) [HDRip, Ду ...
  • Супер Майк / Magic Mike (Стивен Содерберг, драма, комедия, биография, 2011) ...
  • Защитник / Safe (Боаз Якин, Боевик, криминал, 2012) [BD-Remux 1080p [USA Tr ...
  • Диктатор / The Dictator (Ларри Чарльз, Комедия, 2012) [BD-Remux 1080p, Дубл ...
  • Счастливчик / The Lucky One (Скотт Хикс, Драма, мелодрама, 2012) [BD-Remux ...
  • Красные огни / Red Lights (Родриго Кортес, Ужасы, триллер, драма, 2012) [BD ...
  • Белоснежка и охотник [Расширенная версия] / Snow White and the Huntsman [U ...
  • Ищу друга на конец света / Seeking a Friend for the End of the World (Лорен ...
  • Супер Майк / Magic Mike (Стивен Содерберг, Драма, комедия, 2012) [BDRip 720 ...
  • Супер Майк / Magic Mike (Стивен Содерберг, Драма, комедия, 2012) [BDRip 108 ...
  • Супер Майк / Magic Mike (Стивен Содерберг, Драма, Комедия, 2012) [320x240] ...
  • Супер Майк / Magic Mike (Стивен Содерберг, драма, комедия, 2012) [DVDRip, Д ...
  • Супер Майк / Magic Mike (Стивен Содерберг, Драма, комедия, 2012) [DVD5, Дуб ...
  • Супер Майк / Magic Mike (Стивен Содерберг, Драма, комедия, биография, 2012) ...
  • Супер Майк / Magic Mike (Стивен Содерберг, Драма, комедия, 2012) [BDRip, Ду ...
  • Информация
    Посетители, находящиеся в группе Гости, не могут оставлять комментарии к данной публикации.