вход на сайт

Имя пользователя :
Пароль :

Восстановление пароля Регистрация
Супер Майк / Magic Mike (Стивен Содерберг, Драма, комедия, 2012) [BDRip 1080p, Дубляж, Оригинал (английский), Sub]
Рейтинг:
(голосов: 1)



[img]{THEME}/images/logopost.png[/img]



Супер Майк / Magic Mike
«Они делают это за деньги»


Год выпуска: 2012
Страна: США
Производство: Extension 765, Iron Horse Entertainment (II), Nick Wechsler Productions
Жанр: Драма, комедия

Режиссёр: Стивен Содерберг
В ролях: Ченнинг Татум, Алекс Петтифер, Мэттью МакКонахи, Мэтт Бомер, Джо Манганьелло, Кевин Нэш, Оливия Манн, Джеймс Мартин Келли, Коуди Хорн, Рейд Каролин

Перевод: Дубляж, Оригинал (английский)
Субтитры: English, French, Spanish

Описание: Это фильм о настоящей мужской дружбе в мире стриптизеров. Главный герой — танцор, который обучает молодого парня, как необходимо вести себя на сцене и около шеста.



Качество: BDRip 1080p| Сэмпл
Продолжительность:01:50:28 час.


Формат: MKV
Видео кодек: x264
Аудио кодек: AC3, DTS
Видео: 1920x804 (2.40:1), 23.976 fps, x264 ~13.5 mb/s, 0.365 bit/pixel
Аудио#1: 48 kHz, AC3 Dolby Digital, 3/2 (L,C,R,l,r) + LFE ch, ~384 kbps (Дубляж)
Аудио#2: 48 kHz, DTS, 3/2 (L,C,R,l,r) + LFE ch, ~1536.00 kbps avg (Оригинал)

Дата премьеры (мир): 28 июня 2012
Дата премьеры (РФ): 28 июня 2012, «Top Film Distribution»

MediaInfo ▼General
Unique ID : 205327814836837491082301252019632277949 (0x9A78B2DE115DE14A8A56076DC1F509BD)
Complete name : D:Magic.Mike.2012.1080p.BluRay.DTS.x264-NTb.mkv
Format : Matroska
Format version : Version 2
File size : 11.9 GiB
Duration : 1h 50mn
Overall bit rate : 15.4 Mbps
Movie name : -Talian-
Encoded date : UTC 2012-10-17 06:12:04
Writing application : mkvmerge v5.7.0 (The Whirlwind) built on Jul 8 2012 20:08:51
Writing library : libebml v1.2.3 + libmatroska v1.3.0

Video
ID : 1
Format : AVC
Format/Info : Advanced Video Codec
Format profile : [email protected]
Format settings, CABAC : Yes
Format settings, ReFrames : 5 frames
Codec ID : V_MPEG4/ISO/AVC
Duration : 1h 50mn
Bit rate : 13.5 Mbps
Width : 1 920 pixels
Height : 804 pixels
Display aspect ratio : 2.40:1
Frame rate : 23.976 fps
Color space : YUV
Chroma subsampling : 4:2:0
Bit depth : 8 bits
Scan type : Progressive
Bits/(Pixel*Frame) : 0.365
Stream size : 10.2 GiB (86%)
Title : Magic Mike 2012 1080p BluRay DTS x264-NTb
Writing library : x264 core 128 r2216 198a7ea
Encoding settings : cabac=1 / ref=5 / deblock=1:-3:-3 / analyse=0x3:0x113 / me=umh / subme=10 / psy=1 / psy_rd=1.12:0.06 / mixed_ref=1 / me_range=48 / chroma_me=1 / trellis=2 / 8x8dct=1 / cqm=0 / deadzone=21,11 / fast_pskip=0 / chroma_qp_offset=-3 / threads=12 / lookahead_threads=2 / sliced_threads=0 / nr=0 / decimate=1 / interlaced=0 / bluray_compat=0 / constrained_intra=0 / bframes=6 / b_pyramid=2 / b_adapt=2 / b_bias=0 / direct=3 / weightb=1 / open_gop=0 / weightp=2 / keyint=240 / keyint_min=23 / scenecut=40 / intra_refresh=0 / rc_lookahead=192 / rc=2pass / mbtree=1 / bitrate=13500 / ratetol=1.0 / qcomp=0.70 / qpmin=0 / qpmax=69 / qpstep=4 / cplxblur=20.0 / qblur=0.5 / ip_ratio=1.40 / aq=1:0.90
Language : English
Default : No
Forced : No

Audio #1
ID : 2
Format : AC-3
Format/Info : Audio Coding 3
Mode extension : CM (complete main)
Format settings, Endianness : Big
Codec ID : A_AC3
Duration : 1h 50mn
Bit rate mode : Constant
Bit rate : 384 Kbps
Channel(s) : 6 channels
Channel positions : Front: L C R, Side: L R, LFE
Sampling rate : 48.0 KHz
Bit depth : 16 bits
Compression mode : Lossy
Stream size : 303 MiB (2%)
Title : DUB-R5
Language : Russian
Default : Yes
Forced : No

Audio #2
ID : 3
Format : DTS
Format/Info : Digital Theater Systems
Codec ID : A_DTS
Duration : 1h 50mn
Bit rate mode : Constant
Bit rate : 1 510 Kbps
Channel(s) : 6 channels
Channel positions : Front: L C R, Side: L R, LFE
Sampling rate : 48.0 KHz
Bit depth : 24 bits
Compression mode : Lossy
Stream size : 1.17 GiB (10%)
Title : Original
Language : English
Default : No
Forced : No

Text #1
ID : 4
Format : UTF-8
Codec ID : S_TEXT/UTF8
Codec ID/Info : UTF-8 Plain Text
Title : Sub-SDH
Language : Englis
3bf7e187abc2ae43093fcfcf09131cc09da99529Супер Майк / Magic Mike (Стивен Содерберг, Драма, комедия, 2012) [BDRip 1080p, Дубляж, Оригинал (английский), Sub] Супер Майк / Magic Mike (Стивен Содерберг, Драма, комедия, 2012) [BDRip 1080p, Дубляж, Оригинал (английский), Sub] " />

Аплоадер: Админ, дата: 17-10-2012, 15:34, торрент скачан: 359 раз

Понравилась раздача? Посмотрите эти:
  • Хроника / Chronicle (Джошуа Транк, фантастика, боевик, триллер, драма, 2012 ...
  • Жизнь Пи / Life Of Pi (Энг Ли, Драма, приключения, 2012) [BDRip 1080p, Проф ...
  • Толстяк на ринге / Here Comes the Boom (Фрэнк Корачи, Боевик, комедия, 201 ...
  • Анна Каренина / Anna Karenina (Джо Райт, Драма, мелодрама, 2012) [BDRip 108 ...
  • Черный дрозд / Deadfall (Штефан Руцовицки, Триллер, драма, криминал, 2012) ...
  • Супер Майк / Magic Mike (Стивен Содерберг, Драма, комедия, 2012) [DVDRip-AV ...
  • Супер Майк / Magic Mike (Стивен Содерберг, Драма, комедия, 2012) [HDRip, Ду ...
  • Супер Майк / Magic Mike (Стивен Содерберг, драма, комедия, биография, 2011) ...
  • Патруль / End of Watch (Дэвид Эйр, Триллер, драма, криминал, 2012) [BDRip-A ...
  • Ворон / The Raven (Джеймс МакТиг, Триллер, детектив, 2012) [BDRip 720p, Дуб ...
  • Хижина в лесу / The Cabin in the Woods (Дрю Годдард, Ужасы, фантастика, три ...
  • Красные огни / Red Lights (Родриго Кортес, Ужасы, триллер, драма, 2012) [BD ...
  • Рок на века / Rock of Ages (Адам Шенкман, Мюзикл, драма, мелодрама, комедия ...
  • Супер Майк / Magic Mike (Стивен Содерберг, Драма, комедия, 2012) [BDRip 720 ...
  • Супер Майк / Magic Mike (Стивен Содерберг, Драма, комедия, 2012) [BD-Remux ...
  • Третий лишний / Ted (Сет МакФарлейн, Фэнтези, комедия, 2012) [BDRip 1080p, ...
  • На Дороге / On The Road (Уолтер Саллес, Драма, приключения, 2012) [BDRip 72 ...
  • На Дороге / On The Road (Уолтер Саллес, Драма, приключения, 2012) [BDRip 10 ...
  • Патруль / End of Watch (Дэвид Эйр, Триллер, драма, криминал, 2012) [BDRip 7 ...
  • Петля времени / Looper (Райан Джонсон, Фантастика, боевик, триллер, 2012) [ ...
  • Супер Майк / Magic Mike (Стивен Содерберг, Драма, Комедия, 2012) [320x240] ...
  • Супер Майк / Magic Mike (Стивен Содерберг, драма, комедия, 2012) [DVDRip, Д ...
  • Супер Майк / Magic Mike (Стивен Содерберг, Драма, комедия, 2012) [DVD5, Дуб ...
  • Супер Майк / Magic Mike (Стивен Содерберг, Драма, комедия, биография, 2012) ...
  • Супер Майк / Magic Mike (Стивен Содерберг, Драма, комедия, 2012) [BDRip, Ду ...
  • Информация
    Посетители, находящиеся в группе Гости, не могут оставлять комментарии к данной публикации.