вход на сайт

Имя пользователя :
Пароль :

Восстановление пароля Регистрация
Орда (Андрей Прошкин, История, 2012) [BDRip 720p, Не требуется]
Рейтинг:
(голосов: 1)



[img]{THEME}/images/logopost.png[/img]



Орда


Год выпуска: 2012
Страна: Россия
Производство: Вольга
Жанр: История

Режиссёр: Андрей Прошкин
В ролях: Максим Суханов, Андрей Панин, Виталий Хаев, Александр Яценко, Петр Янданэ, Евгений Харитонов, Юрий Пронин, Роза Хайруллина, Виталий Гусев, Юнчен Жуань

Перевод: Не требуется
Субтитры: Отсутствуют

Описание: Орда. Веками это слово означало кровавые набеги и унизительную дань для многих стран и народов. Странный и страшный мир со своими законами и обычаями. В середине XIV века власть Орды простирается над большей частью Евразии. Платит дань восточному соседу и Московское княжество. Когда ханшу Тайдулу сражает тяжелый недуг, ни один целитель оказывается не силах ей помочь. Тогда в Орду вызывают «московского колдуна» митрополита Алексия. На карту поставлена судьба всего княжества. Однако и сам Алексий не знает, чем обернется его путешествие в Орду.

Релиз от:



Качество: BDRip 720p| Сэмпл
Продолжительность:02:09:26 час.


Формат: MKV
Видео кодек: x264
Аудио кодек: DTS
Видео: 1280x544 (2.35:1), 24 fps, x264 ~5 469 kbps avg, 0.327 bit/pixel
Аудио: 48 kHz, DTS, 3/2 (L,C,R,l,r) + LFE ch, ~1536.00 kbps avg


Дата премьеры (мир): 24 октября 2012
Дата премьеры (РФ): 20 сентября 2012, «Вольга»



MediaInfo| ▼
General
Unique ID : 187408793739011755902061755136147405346 (0x8CFD9EEACE2BC310BDCAE2CF58573A22)
Complete name : Orda.2012.O.BDRip.720p.IRONCLUB.mkv
Format : Matroska
Format version : Version 2
File size : 6.44 GiB
Duration : 2h 9mn
Overall bit rate : 7 120 Kbps
Movie name : IRONCLUB
Encoded date : UTC 2012-10-16 07:12:07
Writing application : mkvmerge v4.9.1 (Ich will) сборка от Jul 11 2011 23:53:15
Writing library : libebml v1.2.1 + libmatroska v1.1.1

Video
ID : 1
Format : AVC
Format/Info : Advanced Video Codec
Format profile : [email protected]
Format settings, CABAC : Yes
Format settings, ReFrames : 12 frames
Codec ID : V_MPEG4/ISO/AVC
Duration : 2h 9mn
Bit rate : 5 469 Kbps
Width : 1 280 pixels
Height : 544 pixels
Display aspect ratio : 2.35:1
Frame rate : 24.000 fps
Color space : YUV
Chroma subsampling : 4:2:0
Bit depth : 8 bits
Scan type : Progressive
Bits/(Pixel*Frame) : 0.327
Stream size : 4.94 GiB (77%)
Title : Orda 2012 720p BluRay DTS x264-IRONCLUB
Writing library : x264 core 128 r2216 198a7ea
Encoding settings : cabac=1 / ref=12 / deblock=1:-3:-3 / analyse=0x3:0x113 / me=umh / subme=11 / psy=1 / psy_rd=1.20:0.00 / mixed_ref=1 / me_range=48 / chroma_me=1 / trellis=2 / 8x8dct=1 / cqm=0 / deadzone=21,11 / fast_pskip=0 / chroma_qp_offset=-2 / threads=12 / lookahead_threads=2 / sliced_threads=0 / nr=0 / decimate=1 / interlaced=0 / bluray_compat=0 / constrained_intra=0 / bframes=8 / b_pyramid=2 / b_adapt=2 / b_bias=0 / direct=3 / weightb=1 / open_gop=0 / weightp=2 / keyint=250 / keyint_min=24 / scenecut=40 / intra_refresh=0 / rc_lookahead=40 / rc=crf / mbtree=0 / crf=17.0 / qcomp=0.70 / qpmin=10 / qpmax=69 / qpstep=4 / vbv_maxrate=50000 / vbv_bufsize=62500 / crf_max=0.0 / nal_hrd=none / ip_ratio=1.30 / pb_ratio=1.10 / aq=2:0.80
Language : English
Default : Yes
Forced : Yes
Matrix coefficients : BT.709-5, BT.1361, IEC 61966-2-4 709, SMPTE RP177

Audio
ID : 2
Format : DTS
Format/Info : Digital Theater Systems
Codec ID : A_DTS
Duration : 2h 9mn
Bit rate mode : Constant
Bit rate : 1 510 Kbps
Channel(s) : 6 channels
Channel positions : Front: L C R, Side: L R, LFE
Sampling rate : 48.0 KHz
Bit depth : 24 bits
Compression mode : Lossy
Stream size : 1.36 GiB (21%)
Title : DTS 5.1 @ 1536 kbps
Language : Russian
Default : Yes
Forced : Yes








555ee8998fe92ceeb23994cabe14074a7299378bОрда (Андрей Прошкин, История, 2012) [BDRip 720p, Не требуется] Орда (Андрей Прошкин, История, 2012) [BDRip 720p, Не требуется] " />

Аплоадер: Админ, дата: 16-10-2012, 14:41, торрент скачан: 359 раз

Понравилась раздача? Посмотрите эти:
  • Орда (Андрей Прошкин, история, 2012) [BDRip, Не требуется]
  • Орда (Андрей Прошкин, История, 2012) [BDRip-AVC, Не требуется]
  • Орда (Андрей Прошкин, История, 2012) [HDRip-AVC, Не требуется]
  • Орда (Андрей Прошкин, История, 2012) [BDRip-AVC, Не требуется]
  • Белый тигр (Карен Шахназаров, военный, 2012) [BDRip 720p, Не требуется]
  • Девчата (Юрий Чулюкин, мелодрама, комедия, 1961) [BDRip 720p, Не требуется] ...
  • Закон доблести / Act of Valor (Майк МакКой, Скотт Во, боевик, триллер, прик ...
  • Джок / Jock (Дункан МакНили, мультфильм, комедия, приключения, семейный, 20 ...
  • Матч (Андрей Малюков, Драма, спорт, 2012) [BDRip 720p, Не требуется]
  • Немножко женаты / The Five-Year Engagement (Николас Столлер, Мелодрама, ком ...
  • Медальон / Stolen (Саймон Уэст, Боевик, триллер, 2012) [BDRip 720p, Дубляж, ...
  • Сказка. Есть (Елизавета Соломина, Константин Статский, Александр Баршак, Фэ ...
  • Любовь С Препятствиями / Un Bonheur Narrive Jamais Seul (Джеймс Хат, Мелодр ...
  • Орда (Андрей Прошкин, история, 2012) [BD-Remux 1080p, не требуется]
  • Орда (Андрей Прошкин, История, 2012) [BDRip-AVC, Оригинал]
  • Москва 2017 / Branded (Джейми Брэдшоу, Александр Дулерайн, фантастика, трил ...
  • Орда (Андрей Прошкин, история, 2012) [BDRip 1080p, не требуется]
  • Судный день / The Day (Дуглас Арниокоски, Фантастика, триллер, драма, 2011) ...
  • 1812: Уланская баллада (Олег Фесенко, Приключения, 2012) [BDRip 720p, Не тр ...
  • Джунгли (Александр Войтинский, мелодрама, комедия, приключения, 2012) [BDRi ...
  • Орда (Андрей Прошкин, история, 2012) [HDRip, Не требуется]
  • Орда (Андрей Прошкин, История, 2012) [Blu-Ray Disc [RUS] 1080p, Не требуетс ...
  • Орда (Андрей Прошкин, История, 2012) [DVD9+DVD5, Не требуется]
  • Орда (Андрей Прошкин, История, 2012) [320x240] [HDRip, Оригинал]
  • Орда (Андрей Прошкин, История, 2012) [BDRip, Не требуется]
  • Информация
    Посетители, находящиеся в группе Гости, не могут оставлять комментарии к данной публикации.