вход на сайт

Имя пользователя :
Пароль :

Восстановление пароля Регистрация
Любовь С Препятствиями / Un Bonheur Narrive Jamais Seul (Джеймс Хат, Мелодрама, комедия, 2012) [BDRip 720p, Дубляж]
Рейтинг:
(голосов: 1)



[img]{THEME}/images/logopost.png[/img]



Любовь С Препятствиями / Un Bonheur Narrive Jamais Seul


Год выпуска: 2012
Страна: Франция
Производство: Captain Movies, Eskwad, SPAD Films
Жанр: Мелодрама, комедия

Режиссёр: Джеймс Хат
В ролях: Софи Марсо, Гад Эльмалех, Морис Бартелеми, Франсуа Берлеан, Майкл Абитебул, Джули-Энн Рот, Маша Мериль, Франсуа Винчентелли

Перевод: Дубляж
Субтитры: Отсутствуют

Описание: Саша живет беззаботной и легкомысленной жизнью в окружении красивых девушек, друзей и музыки. Шарлота уже дважды успела побывать замужем и больше не собирается повторять своих ошибок. Хотя, как знать. Может, у судьбы свои планы?

Релиз от:



Качество: BDRip 720p| Сэмпл
Продолжительность:01:49:19 час.

Формат: MKV
Видео кодек: x264
Аудио кодек: AC3
Видео: 1280x720 (16:9), 23.976 fps, x264 ~8 336 kbps avg, 0.377 bit/pixel
Аудио: 48 kHz, AC3 Dolby Digital, 3/2 (L,C,R,l,r) + LFE ch, ~640 kbps

Дата премьеры (мир): 13 июня 2012
Дата премьеры (РФ): 16 августа 2012, «Каскад»

MediaInfo ▼
x264 [info]: frame I:1181 Avg QP:15.66 size:150141
x264 [info]: frame P:33850 Avg QP:16.81 size: 73623
x264 [info]: frame B:122240 Avg QP:18.41 size: 35288
x264 [info]: consecutive B-frames: 1.7% 2.4% 8.0% 20.8% 10.5% 53.8% 2.1% 0.7%

General
Unique ID : 171901363094863014699894751201152745558 (0x8152FF8E655536B4BA8F194FFCDC4056)
Complete name : Ljubov.s.prepjatstvijami.2012.D.BDRip.720p.IRONCLUB.mkv
Format : Matroska
Format version : Version 2
File size : 6.99 GiB
Duration : 1h 49mn
Overall bit rate : 9 158 Kbps
Movie name : IRONCLUB
Encoded date : UTC 2012-10-13 06:47:28
Writing application : mkvmerge v4.9.1 (Ich will) сборка от Jul 11 2011 23:53:15
Writing library : libebml v1.2.1 + libmatroska v1.1.1

Video
ID : 1
Format : AVC
Format/Info : Advanced Video Codec
Format profile : [email protected]
Format settings, CABAC : Yes
Format settings, ReFrames : 9 frames
Codec ID : V_MPEG4/ISO/AVC
Duration : 1h 49mn
Bit rate : 8 336 Kbps
Width : 1 280 pixels
Height : 720 pixels
Display aspect ratio : 16:9
Frame rate : 23.976 fps
Color space : YUV
Chroma subsampling : 4:2:0
Bit depth : 8 bits
Scan type : Progressive
Bits/(Pixel*Frame) : 0.377
Stream size : 6.37 GiB (91%)
Title : Un bonheur narrive jamais seul 2012 720p Bluray DTS x264-IRONCLUB
Writing library : x264 core 128 r2216 198a7ea
Encoding settings : cabac=1 / ref=9 / deblock=1:-3:-3 / analyse=0x3:0x113 / me=umh / subme=11 / psy=1 / psy_rd=1.15:0.00 / mixed_ref=1 / me_range=48 / chroma_me=1 / trellis=2 / 8x8dct=1 / cqm=0 / deadzone=21,11 / fast_pskip=0 / chroma_qp_offset=-2 / threads=12 / lookahead_threads=2 / sliced_threads=0 / nr=0 / decimate=1 / interlaced=0 / bluray_compat=0 / constrained_intra=0 / bframes=7 / b_pyramid=2 / b_adapt=2 / b_bias=0 / direct=3 / weightb=1 / open_gop=0 / weightp=2 / keyint=250 / keyint_min=23 / scenecut=40 / intra_refresh=0 / rc_lookahead=40 / rc=crf / mbtree=0 / crf=16.5 / qcomp=0.80 / qpmin=10 / qpmax=69 / qpstep=4 / vbv_maxrate=50000 / vbv_bufsize=62500 / crf_max=0.0 / nal_hrd=none / ip_ratio=1.30 / pb_ratio=1.20 / aq=2:0.80
Language : French
Default : Yes
Forced : Yes
Matrix coefficients : BT.709-5, BT.1361, IEC 61966-2-4 709, SMPTE RP177

Audio
ID : 2
Format : AC-3
Format/Info : Audio Coding 3
Mode extension : CM (complete main)
Format settings, Endianness : Big
Codec ID : A_AC3
Duration : 1h 49mn
Bit rate mode : Constant
Bit rate : 640 Kbps
Channel(s) : 6 channels
Channel positions : Front: L C R, Side: L R, LFE
Sampling rate : 48.0 KHz
Bit depth : 16 bits
Compression mode : Lossy
Stream size : 500 MiB (7%)
Title : DD 5.1 @ 640 kbps - Dub, BD RUS
Language : Russian
Default : Yes
Forced : Yes

Menu
00:00:00.000 : fr:00:00:00.000
00:00:00.417 : fr:00:00:00.417
00:03:38.885 : fr:00:03:38.885
00:14:55.185 : fr:00:14:55.185
00:26:38.430 : fr:00:26:38.430
00:38:22.842 : fr:00:38:22.842
00:48:12.806 : fr:00:48:12.806
01:02:07.390 : fr:0
aa5023687c1f415af4bd9c80acf5862cab681f1aЛюбовь С Препятствиями / Un Bonheur Narrive Jamais Seul (Джеймс Хат, Мелодрама, комедия, 2012) [BDRip 720p, Дубляж] Любовь С Препятствиями / Un Bonheur Narrive Jamais Seul (Джеймс Хат, Мелодрама, комедия, 2012) [BDRip 720p, Дубляж] " />

Аплоадер: Админ, дата: 13-10-2012, 22:09, торрент скачан: 359 раз

Понравилась раздача? Посмотрите эти:
  • Замуж на 2 дня / Un plan parfait (Паскаль Шомель, Мелодрама, комедия, прикл ...
  • Толстяк на ринге / Here Comes the Boom (Фрэнк Корачи, Боевик, комедия, 201 ...
  • Марко Макако / Marco Macaco (Жан Рабек, Мультфильм, комедия, семейный, 2012 ...
  • Покорители Волн / Chasing Mavericks (Майкл Эптед, Кёртис Хэнсон, Драма, спо ...
  • Любовь с препятствиями / Un bonheur narrive jamais seul (Джеймс Хат, мелодр ...
  • Любовь С Препятствиями / Un Bonheur Narrive Jamais Seul (Джеймс Хат, Мелодр ...
  • Любовь С Препятствиями / Un Bonheur Narrive Jamais Seul (Джеймс Хат, Мелодр ...
  • Любовь С Препятствиями / Un Bonheur Narrive Jamais Seul (Джеймс Хат, Мелодр ...
  • Любовь с препятствиями / Un bonheur narrive jamais seul (Джеймс Хат, мелодр ...
  • Любовь С Препятствиями / Un Bonheur Narrive Jamais Seul (Джеймс Хат, Мелодр ...
  • Белый тигр (Карен Шахназаров, военный, 2012) [BDRip 720p, Не требуется]
  • Джок / Jock (Дункан МакНили, мультфильм, комедия, приключения, семейный, 20 ...
  • Ворон / The Raven (Джеймс МакТиг, Триллер, детектив, 2012) [BDRip 720p, Дуб ...
  • Три метра над уровнем неба: Я тебя хочу / Tengo ganas de ti / I Want You (Ф ...
  • Золушка: Полный вперед! / Cendrillon au Far West (Паскаль Эрольд, Мультфиль ...
  • Немножко женаты / The Five-Year Engagement (Николас Столлер, Мелодрама, ком ...
  • Параллельные миры / Upside Down (Хуан Диего Соланас, Фэнтези, мелодрама, 20 ...
  • Неудержимые 2 / The Expendables 2 (Саймон Уэст, боевик, триллер, 2012) [BDR ...
  • ЗЛО / V/H/S (Мэттью Беттинелли, Адам Вингард, Дэвид Брукнер, ужасы, 2012) [ ...
  • Рок на века / Rock of Ages (Адам Шенкман, Мюзикл, драма, мелодрама, комедия ...
  • Любовь С Препятствиями / Un Bonheur Narrive Jamais Seul (Джеймс Хат, Мелодр ...
  • Москва 2017 / Branded (Джейми Брэдшоу, Александр Дулерайн, фантастика, трил ...
  • Любовь С Препятствиями / Un Bonheur Narrive Jamais Seul (Джеймс Хат, Мелодр ...
  • Третий лишний / Ted (Сет МакФарлейн, Фэнтези, комедия, 2012) [BDRip 720p, Д ...
  • Патруль / End of Watch (Дэвид Эйр, Триллер, драма, криминал, 2012) [BDRip 7 ...
  • Информация
    Посетители, находящиеся в группе Гости, не могут оставлять комментарии к данной публикации.