вход на сайт

Имя пользователя :
Пароль :

Восстановление пароля Регистрация
Супер Майк / Magic Mike (Стивен Содерберг, Драма, комедия, 2012) [BDRip 720p, Дубляж, Оригинал (английский), Sub]
Рейтинг:
(голосов: 1)



[img]{THEME}/images/logopost.png[/img]



Супер Майк / Magic Mike
«Они делают это за деньги»


Год выпуска: 2012
Страна: США
Производство: Extension 765, Iron Horse Entertainment (II), Nick Wechsler Productions
Жанр: Драма, комедия

Режиссёр: Стивен Содерберг
В ролях: Ченнинг Татум, Алекс Петтифер, Мэттью МакКонахи, Мэтт Бомер, Джо Манганьелло, Кевин Нэш, Оливия Манн, Джеймс Мартин Келли, Коуди Хорн, Рейд Каролин

Перевод: Дубляж, Оригинал (английский)
Субтитры: English

Описание: Это фильм о настоящей мужской дружбе в мире стриптизеров. Главный герой — танцор, который обучает молодого парня, как необходимо вести себя на сцене и около шеста.

Релиз от:



Качество: BDRip 720p| Сэмпл
Продолжительность:01:50:28 час.


Формат: MKV
Видео кодек: x264
Аудио кодек: AC3, DTS
Видео: 1280x546 (2:35:1), 23.976 fps, x264 ~4 600 kbps avg, 0.275 bit/pixel
Аудио#1: 48 kHz, AC3 Dolby Digital, 3/2 (L,C,R,l,r) + LFE ch, ~384 kbps (Дубляж)
Аудио#2: 48 kHz, DTS, 3/2 (L,C,R,l,r) + LFE ch, ~1536.00 kbps avg (Оригинал)

Дата премьеры (мир): 28 июня 2012
Дата премьеры (РФ): 28 июня 2012, «Top Film Distribution»

MediaInfo ▼Complete name : Super.Majk.2011.D.BDRip.720p.IRONCLUB.mkv
Format : Matroska
Format version : Version 2
File size : 5.01 GiB
Duration : 1h 50mn
Overall bit rate : 6 495 Kbps
Movie name : IRONCLUB
Encoded date : UTC 2012-10-12 15:11:54
Writing application : mkvmerge v4.9.1 (Ich will) сборка от Jul 11 2011 23:53:15
Writing library : libebml v1.2.1 + libmatroska v1.1.1

Video
ID : 1
Format : AVC
Format/Info : Advanced Video Codec
Format profile : [email protected]
Format settings, CABAC : Yes
Format settings, ReFrames : 11 frames
Codec ID : V_MPEG4/ISO/AVC
Bit rate : 4 600 Kbps
Width : 1 280 pixels
Height : 546 pixels
Display aspect ratio : 2.35:1
Frame rate mode : Variable
Original frame rate : 23.976 fps
Color space : YUV
Chroma subsampling : 4:2:0
Bit depth : 8 bits
Scan type : Progressive
Bits/(Pixel*Frame) : 0.275
Title : Magic.Mike.2012.720p.BluRay.x264.DTS-HDChina
Writing library : x264 core 128 r2216+688+33 06dac27 tMod+MixAQ [[email protected]:2:0 X86_64]
Encoding settings : cabac=1 / ref=11 / deblock=1:-2:-2 / analyse=0x3:0x113 / me=umh / subme=10 / psy=1 / fade_compensate=0.00 / psy_rd=1.10:0.05 / mixed_ref=1 / me_range=32 / chroma_me=1 / trellis=2 / 8x8dct=1 / cqm=0 / deadzone=21,11 / fast_pskip=0 / chroma_qp_offset=-3 / threads=18 / lookahead_threads=3 / sliced_threads=0 / nr=0 / decimate=0 / interlaced=0 / bluray_compat=0 / constrained_intra=0 / fgo=0 / bframes=8 / b_pyramid=2 / b_adapt=2 / b_bias=0 / direct=3 / weightb=1 / open_gop=0 / weightp=2 / keyint=240 / keyint_min=24 / scenecut=40 / intra_refresh=0 / rc_lookahead=240 / rc=2pass / mbtree=1 / bitrate=4600 / ratetol=1.0 / qcomp=0.70 / qpmin=0 / qpmax=69 / qpstep=4 / cplxblur=20.0 / qblur=0.5 / ip_ratio=1.20 / aq=4 / aq-strength=1.00 / aq-sensitivity=10.00 / aq-ifactor=1.00 / aq-pfactor=1.00 / aq-bfactor=1.00 / aq2=0
Language : English
Default : Yes
Forced : Yes

Audio #1
ID : 2
Format : AC-3
Format/Info : Audio Coding 3
Mode extension : CM (complete main)
Format settings, Endianness : Big
Codec ID : A_AC3
Duration : 1h 50mn
Bit rate mode : Constant
Bit rate : 384 Kbps
Channel(s) : 6 channels
Channel positions : Front: L C R, Side: L R, LFE
Sampling rate : 48.0 KHz
Bit depth : 16 bits
Compression mode : Lossy
Stream size : 303 MiB (6%)
Title : DD 5.1 @ 384 kbps - Dub, R5
Language : Russian
Default : Yes
Forced : Yes

Audio #2
ID : 3
Format : DTS
Format/Info : Digital Theater Systems
Codec ID : A_DTS
Duration : 1h 50mn
Bit rate mode : Constant
Bit rate : 1 510 Kbps
Channel(s) : 6 channels
Channel positions : Front: L C R, Side: L R, LFE
Sampling rate : 48.0 KHz
Bit depth : 24 bits
Compression mode : Lossy
Stream size : 1.17 GiB (23%)
Title : DTS 5.1 @ 1536 kbps
Language : English
Default : No
Forced : No

Text
ID : 4
Format : UTF-8
Codec ID : S_TEXT/UTF8
Codec ID/Info : UTF-8 Plain Text
Language : English
Default : No
Forced :
9742ba9223bbd2d674b734e97fc572dadbb950e3Супер Майк / Magic Mike (Стивен Содерберг, Драма, комедия, 2012) [BDRip 720p, Дубляж, Оригинал (английский), Sub] Супер Майк / Magic Mike (Стивен Содерберг, Драма, комедия, 2012) [BDRip 720p, Дубляж, Оригинал (английский), Sub] " />

Аплоадер: Админ, дата: 12-10-2012, 23:29, торрент скачан: 359 раз

Понравилась раздача? Посмотрите эти:
  • Весенние надежды / Hope Springs (Дэвид Фрэнкел, Драма, мелодрама, комедия, ...
  • Толстяк на ринге / Here Comes the Boom (Фрэнк Корачи, Боевик, комедия, 201 ...
  • Хорошо быть тихоней / The Perks of Being a Wallflower (Стивен Чбоски, Драма ...
  • Черный дрозд / Deadfall (Штефан Руцовицки, Триллер, драма, криминал, 2012) ...
  • Супер Майк / Magic Mike (Стивен Содерберг, Драма, комедия, 2012) [DVDRip-AV ...
  • Супер Майк / Magic Mike (Стивен Содерберг, Драма, комедия, 2012) [HDRip, Ду ...
  • Супер Майк / Magic Mike (Стивен Содерберг, драма, комедия, биография, 2011) ...
  • Закон доблести / Act of Valor (Майк МакКой, Скотт Во, боевик, триллер, прик ...
  • Проект X: Дорвались / Project X (Нима Нуризаде, комедия, 2012) [BDRip 720p, ...
  • «Весёлые» каникулы / Get the Gringo (Адриан Грюнберг, Боевик, комедия, 2012 ...
  • Ворон / The Raven (Джеймс МакТиг, Триллер, детектив, 2012) [BDRip 720p, Дуб ...
  • Люди в черном 3 / Men in Black III (Барри Зонненфельд, Фантастика, боевик, ...
  • Красные огни / Red Lights (Родриго Кортес, Ужасы, триллер, драма, 2012) [BD ...
  • Рок на века / Rock of Ages (Адам Шенкман, Мюзикл, драма, мелодрама, комедия ...
  • Супер Майк / Magic Mike (Стивен Содерберг, Драма, комедия, 2012) [BDRip 108 ...
  • Супер Майк / Magic Mike (Стивен Содерберг, Драма, комедия, 2012) [BD-Remux ...
  • Дружинники / The Watch (Акива Шаффер, Фантастика, комедия, 2012) [BDRip 720 ...
  • Третий лишний / Ted (Сет МакФарлейн, Фэнтези, комедия, 2012) [BDRip 1080p, ...
  • На Дороге / On The Road (Уолтер Саллес, Драма, приключения, 2012) [BDRip 72 ...
  • Патруль / End of Watch (Дэвид Эйр, Триллер, драма, криминал, 2012) [BDRip 7 ...
  • Супер Майк / Magic Mike (Стивен Содерберг, Драма, Комедия, 2012) [320x240] ...
  • Супер Майк / Magic Mike (Стивен Содерберг, драма, комедия, 2012) [DVDRip, Д ...
  • Супер Майк / Magic Mike (Стивен Содерберг, Драма, комедия, 2012) [DVD5, Дуб ...
  • Супер Майк / Magic Mike (Стивен Содерберг, Драма, комедия, биография, 2012) ...
  • Супер Майк / Magic Mike (Стивен Содерберг, Драма, комедия, 2012) [BDRip, Ду ...
  • Информация
    Посетители, находящиеся в группе Гости, не могут оставлять комментарии к данной публикации.