вход на сайт

Имя пользователя :
Пароль :

Восстановление пароля Регистрация
Ищу друга на конец света / Seeking a Friend for the End of the World (Лорен Скафария, Фантастика, драма, мелодрама, комедия, 2012) [BD-Remux 1080p, Дубляж, Оригинал (английский), Sub]
Рейтинг:
(голосов: 1)



[img]{THEME}/images/logopost.png[/img]



Ищу друга на конец света / Seeking a Friend for the End of the World
«Любовь подкралась незаметно...»

Год выпуска: 2012
Страна: США, Сингапур, Малайзия, Индонезия
Производство: Mandate Pictures, Indian Paintbrush, Anonymous Content
Жанр: Фантастика, драма, мелодрама, комедия

Режиссёр: Лорен Скафария
В ролях: Стив Карелл, Кира Найтли, Гиллиан Джейкобс, Адам Броди, Мелани Лински, Конни Бриттон, Пэттон Освальт, ТиДжей Миллер, Уильям Л. Питерсен, Роб Кордри...

Перевод: Дубляж, Оригинал (английский)
Субтитры: Английские

Описание: К Земле приближается огромный астероид. В такой момент большинство мужчин пустилось бы во все тяжкие. Но только не Додж. Он отправляется на поиски школьной подружки в компании сексуальной соседки Пенни.



Качество: BD-Remux 1080p | Сэмпл
Продолжительность:01:42:16 час.


Формат: MKV
Видео кодек: x264
Аудио кодек: AC3, DTS-HD Master Audio
Видео: 1920x1080 (16:9), 23.976 fps, x264 ~31,2 mb/s, 0.627 bit/pixel
Аудио#1: 48 kHz, AC3 Dolby Digital, 3/2 (L,C,R,l,r) + LFE ch, ~448 kbps (Дубляж)
Аудио#2: DTS-HD Master Audio 3277 kbps 5.1 / 48 kHz / 3277 kbps / 24-bit (DTS Core: 5.1 / 48 kHz / 1509 kbps / 24-bit) (Оригинал)

Дата премьеры (мир): 18 июня 2012
Дата премьеры (РФ): 19 июля 2012, «UPI»

MediaInfo ▼Общее
Уникальный идентификатор : 239193677753307746551137969588494238986 (0xB3F306D27D689C3A8C290CF7D97D850A)
Полное имя : N:/DATAIschu.druga.na.konec.sveta.2012.MPEG-4-AVC.BluRay-Remux(1080p).mkv
Формат : Matroska
Версия формата : Version 2
Размер файла : 24,5 Гбайт
Продолжительность : 1 ч. 41 м.
Режим общего битрейта : Переменный
Общий поток : 34,7 Мбит/сек
Название фильма : --SCHUMAHER--
Дата кодирования : UTC 2012-10-11 09:21:27
Программа кодирования : mkvmerge v5.8.0 (No Sleep / Pillow) built on Sep 2 2012 15:37:04
Библиотека кодирования : libebml v1.2.3 + libmatroska v1.3.0

Видео
Идентификатор : 1
Формат : AVC
Формат/Информация : Advanced Video Codec
Профиль формата : [email protected]
Параметр CABAC формата : Да
Параметр ReFrames формата : 4 кадра
Параметр GOP формата : M=3, N=12
Идентификатор кодека : V_MPEG4/ISO/AVC
Продолжительность : 1 ч. 41 м.
Вид битрейта : Переменный
Битрейт : 31,2 Мбит/сек
Максимальный битрейт : 35,0 Мбит/сек
Ширина : 1920 пикселей
Высота : 1080 пикселей
Соотношение сторон : 16:9
Частота кадров : 23,976 кадра/сек
Цветовое пространство : YUV
Субдискретизация насыщенности : 4:2:0
Битовая глубина : 8 бит
Тип развёртки : Прогрессивная
Бит/(Пиксели*Кадры) : 0.627
Размер потока : 22,0 Гбайт (90%)
Язык : English
Default : Да
Forced : Да

Аудио #1
Идентификатор : 2
Формат : AC-3
Формат/Информация : Audio Coding 3
Расширение режима : CM (complete main)
Параметр Endianness формата : Big
Идентификатор кодека : A_AC3
Продолжительность : 1 ч. 41 м.
Вид битрейта : Постоянный
Битрейт : 448 Кбит/сек
Каналы : 6 каналов
Расположение каналов : Front: L C R, Side: L R, LFE
Частота : 48,0 КГц
Битовая глубина : 16 бит
Метод сжатия : С потерями
Размер потока : 324 Мбайт (1%)
Язык : Russian
Default : Да
Forced : Да

Аудио #2
Идентификатор : 3
Формат : DTS
Формат/Информация : Digital Theater Systems
Профиль формата : MA / Core
Идентификатор кодека : A_DTS
Продолжительность : 1 ч. 41 м.
Вид битрейта : Переменный
Битрейт : 2419 Кбит/сек / 1510 Кбит/сек
Каналы : 6 каналов
Расположение каналов : Front: L C R, Side: L R, LFE
Частота : 48,0 КГц
Битовая глубина : 24 бит
Метод сжатия : Без потерь / Lossy
Язык : English
Default : Нет
Forced : Нет

Текст
Идентификатор : 4
Формат : UTF-8
Идентификатор кодека : S_TEXT/UTF8
Идентификатор кодека/Информация : UTF-8 Plain Text
Язык : English
Default : Нет
Forced : Нет

Меню
00:00:00.000 : en:00:00:00.000
00:04:28.018 : en:00:04:28.018
00:10:30.547 : en:00:10:30.547
00:16:37.330 : en:00:16:37.330
00:21:35.044 : en:00:21:35.044
00:24:58.080 : en:00:24:58.080
00:31:22.589 : en:00:31:22.589
00:35:11.401 : en:00:35:11.401
00:40:37.685 : en:00:40:37.685
00:45:17.840 : en:0
0008388b0a83db5f2ff8b59cc66e9fff1a3215d2Ищу друга на конец света / Seeking a Friend for the End of the World (Лорен Скафария, Фантастика, драма, мелодрама, комедия, 2012) [BD-Remux 1080p, Дубляж, Оригинал (английский), Sub] Ищу друга на конец света / Seeking a Friend for the End of the World (Лорен Скафария, Фантастика, драма, мелодрама, комедия, 2012) [BD-Remux 1080p, Дубляж, Оригинал (английский), Sub] " />

Аплоадер: Админ, дата: 11-10-2012, 17:00, торрент скачан: 359 раз

Понравилась раздача? Посмотрите эти:
  • 21 и больше / 21 & Over (Джон Лукас, Скотт Мур, Комедия, 2013) [BD-Remux 10 ...
  • Поймай толстуху, если сможешь [Театральная версия] / Identity Thief [Theatr ...
  • G.I. Joe: Бросок кобры 2 [Театральная версия] / G.I. Joe: Retaliation [Thea ...
  • Падение Олимпа / Olympus Has Fallen (Антуан Фукуа, Боевик, триллер, 2013) [ ...
  • Ищу друга на конец света / Seeking a Friend for the End of the World (Лорен ...
  • Ищу друга на конец света / Seeking a Friend for the End of the World (Лорен ...
  • Ищу друга на конец света / Seeking a Friend for the End of the World (Лорен ...
  • Защитник / Safe (Боаз Якин, Боевик, криминал, 2012) [BD-Remux 1080p [USA Tr ...
  • Диктатор / The Dictator (Ларри Чарльз, Комедия, 2012) [BD-Remux 1080p, Дубл ...
  • Счастливчик / The Lucky One (Скотт Хикс, Драма, мелодрама, 2012) [BD-Remux ...
  • Мрачные тени / Dark Shadows (Тим Бёртон, Фэнтези, мелодрама, комедия, 2012 ...
  • Чего ждать, когда ждешь ребенка / What to Expect When Youre Expecting (Кирк ...
  • В ритме сердца / Sur le rythme (Шарль Оливье-Мишо, Мелодрама, 2011) [BD-Rem ...
  • Средь бела дня / The Cold Light of Day (Мабрук Эль Мекри, Боевик, триллер, ...
  • Красные огни / Red Lights (Родриго Кортес, Ужасы, триллер, драма, 2012) [BD ...
  • Белоснежка и охотник [Расширенная версия] / Snow White and the Huntsman [U ...
  • Ищу друга на конец света / Seeking a Friend for the End of the World (Лорен ...
  • Ищу друга на конец света / Seeking a Friend for the End of the World (Лорен ...
  • Супер Майк / Magic Mike (Стивен Содерберг, Драма, комедия, 2012) [BD-Remux ...
  • Папа-Досвидос [Театральная версия] / Thats My Boy [Theatrical Cut] (Шон Анд ...
  • Ищу друга на конец света / Seeking a Friend for the End of the World (Лорен ...
  • Ищу друга на конец света / Seeking a Friend for the End of the World (Лорен ...
  • Ищу друга на конец света / Seeking a Friend for the End of the World (Лорен ...
  • Ищу друга на конец света / Seeking a Friend for the End of the World (Лорен ...
  • Ищу друга на конец света / Seeking a Friend for the End of the World (Лорен ...
  • Информация
    Посетители, находящиеся в группе Гости, не могут оставлять комментарии к данной публикации.