вход на сайт

Имя пользователя :
Пароль :

Восстановление пароля Регистрация
Рок на века / Rock of Ages (Адам Шенкман, Мюзикл, драма, мелодрама, комедия, 2012) [BDRip 720p, Дубляж, Оригинал (английский), Sub]
Рейтинг:
(голосов: 1)



[img]{THEME}/images/logopost.png[/img]



Рок на века / Rock of Ages
«Nothin but a good time»


Год выпуска: 2012
Страна: США
Производство: Corner Store Entertainment, Maguire Entertainment
Жанр: Мюзикл, драма, мелодрама, комедия

Режиссёр: Адам Шенкман
В ролях: Джулианна Хаф, Диего Бонета, Расселл Брэнд, Пол Джаматти, Кэтрин Зета-Джонс, Малин Акерман, Мэри Джей Блайдж, Алек Болдуин, Том Круз, Дакота Сэйдж Грант

Перевод:Дубляж, Оригинал (английский)
Субтитры:Russian [Forced], English [SDH]

Описание: Девушка из маленького города приезжает в Голливуд, чтобы покорить его музыкальную сцену, но вопреки мечтам оказывается раздавленной безжалостной Фабрикой Грез. Но на нее обращает внимание экс-звезда рок-сцены Стэйси Джеккс, а сама девушка, хоть и устраивается работать в стрипклуб, обретает настоящую любовь.


Качество: BDRip 720p | Сэмпл
Продолжительность: 02:03:22 час.


Формат: MKV
Видео кодек: x264
Аудио кодек: AC3, DTS
Видео: 1280x534 (2:40:1), 23.976 fps, x264 ~6 500 kbps avg, 0.397 bit/pixel
Аудио#1: 48 kHz, AC3 Dolby Digital, 3/2 (L,C,R,l,r) + LFE ch, ~384 kbps (Дубляж)
Аудио#2: 48 kHz, DTS, 3/2 (L,C,R,l,r) + LFE ch, ~1536.00 kbps avg (Оригинал)


Дата премьеры (мир): 13 июня 2012
Дата премьеры (РФ): 14 июня 2012, «Каро-Премьер»

MediaInfo ▼General
Unique ID : 231953324742423853385864823214931568350 (0xAE8095DB9AF583658A0119EFC705E6DE)
Complete name : Rok.na.veka.2012.D.BDRip.720p.IRONCLUB.mkv
Format : Matroska
Format version : Version 2
File size : 7.23 GiB
Duration : 2h 3mn
Overall bit rate : 8 393 Kbps
Movie name : IRONCLUB
Encoded date : UTC 2012-10-09 09:41:17
Writing application : mkvmerge v4.9.1 (Ich will) сборка от Jul 11 2011 23:53:15
Writing library : libebml v1.2.1 + libmatroska v1.1.1

Video
ID : 1
Format : AVC
Format/Info : Advanced Video Codec
Format profile : [email protected]
Format settings, CABAC : Yes
Format settings, ReFrames : 12 frames
Codec ID : V_MPEG4/ISO/AVC
Duration : 2h 3mn
Bit rate : 6 500 Kbps
Width : 1 280 pixels
Height : 534 pixels
Display aspect ratio : 2.40:1
Frame rate : 23.976 fps
Color space : YUV
Chroma subsampling : 4:2:0
Bit depth : 8 bits
Scan type : Progressive
Bits/(Pixel*Frame) : 0.397
Stream size : 5.46 GiB (75%)
Title : Rock of Ages 2012 720p Bluray DTS x264-IRONCLUB
Writing library : x264 core 128 r2216 198a7ea
Encoding settings : cabac=1 / ref=12 / deblock=1:-3:-3 / analyse=0x3:0x113 / me=umh / subme=11 / psy=1 / psy_rd=1.10:0.00 / mixed_ref=1 / me_range=16 / chroma_me=1 / trellis=2 / 8x8dct=1 / cqm=0 / deadzone=21,11 / fast_pskip=0 / chroma_qp_offset=-2 / threads=12 / lookahead_threads=2 / sliced_threads=0 / nr=0 / decimate=0 / interlaced=0 / bluray_compat=0 / constrained_intra=0 / bframes=9 / b_pyramid=2 / b_adapt=2 / b_bias=0 / direct=3 / weightb=1 / open_gop=0 / weightp=2 / keyint=250 / keyint_min=23 / scenecut=40 / intra_refresh=0 / rc=2pass / mbtree=0 / bitrate=6500 / ratetol=1.0 / qcomp=0.60 / qpmin=0 / qpmax=69 / qpstep=4 / cplxblur=20.0 / qblur=0.5 / ip_ratio=1.40 / pb_ratio=1.30 / aq=1:0.80
Language : English
Default : Yes
Forced : Yes

Audio #1
ID : 2
Format : AC-3
Format/Info : Audio Coding 3
Mode extension : CM (complete main)
Format settings, Endianness : Big
Codec ID : A_AC3
Duration : 2h 3mn
Bit rate mode : Constant
Bit rate : 384 Kbps
Channel(s) : 6 channels
Channel positions : Front: L C R, Side: L R, LFE
Sampling rate : 48.0 KHz
Bit depth : 16 bits
Compression mode : Lossy
Stream size : 339 MiB (5%)
Title : DD 5.1 @ 384 kbps - Dub, R5
Language : Russian
Default : Yes
Forced : Yes

Audio #2
ID : 3
Format : DTS
Format/Info : Digital Theater Systems
Codec ID : A_DTS
Duration : 2h 3mn
Bit rate mode : Constant
Bit rate : 1 510 Kbps
Channel(s) : 6 channels
Channel positions : Front: L C R, Side: L R, LFE
Sampling rate : 48.0 KHz
Bit depth : 24 bits
Compression mode : Lossy
Stream size : 1.30 GiB (18%)
Title : DTS 5.1 @ 15
d694f6ea5f8d8b26e46f23aa4aab00e3fd49f726Рок на века / Rock of Ages (Адам Шенкман, Мюзикл, драма, мелодрама, комедия, 2012) [BDRip 720p, Дубляж, Оригинал (английский), Sub] Рок на века / Rock of Ages (Адам Шенкман, Мюзикл, драма, мелодрама, комедия, 2012) [BDRip 720p, Дубляж, Оригинал (английский), Sub] " />

Аплоадер: Админ, дата: 9-10-2012, 16:17, торрент скачан: 359 раз

Понравилась раздача? Посмотрите эти:
  • Воображариум / Imaginaerum (Стобе Харью, Фэнтези, приключения, мюзикл, драм ...
  • Отверженные / Les Miserables (Том Хупер, Мюзикл, драма, мелодрама, 2012) [B ...
  • Весенние надежды / Hope Springs (Дэвид Фрэнкел, Драма, мелодрама, комедия, ...
  • Анна Каренина / Anna Karenina (Джо Райт, Драма, мелодрама, 2012) [BDRip 720 ...
  • Толстяк на ринге / Here Comes the Boom (Фрэнк Корачи, Боевик, комедия, 201 ...
  • Хорошо быть тихоней / The Perks of Being a Wallflower (Стивен Чбоски, Драма ...
  • Черный дрозд / Deadfall (Штефан Руцовицки, Триллер, драма, криминал, 2012) ...
  • Рок на века / Rock of Ages (Адам Шенкман, Мюзикл, драма, мелодрама, комедия ...
  • Рок на века [Расширенная версия] / Rock of Ages [Extended version] (Адам Ше ...
  • Рок на века / Rock of Ages (Адам Шенкман, Мюзикл, драма, мелодрама, комедия ...
  • Проект X: Дорвались / Project X (Нима Нуризаде, комедия, 2012) [BDRip 720p, ...
  • «Весёлые» каникулы / Get the Gringo (Адриан Грюнберг, Боевик, комедия, 2012 ...
  • Ворон / The Raven (Джеймс МакТиг, Триллер, детектив, 2012) [BDRip 720p, Дуб ...
  • Немножко женаты / The Five-Year Engagement (Николас Столлер, Мелодрама, ком ...
  • Красные огни / Red Lights (Родриго Кортес, Ужасы, триллер, драма, 2012) [BD ...
  • Рок на века / Rock of Ages (Адам Шенкман, Мюзикл, драма, мелодрама, комедия ...
  • Супер Майк / Magic Mike (Стивен Содерберг, Драма, комедия, 2012) [BDRip 720 ...
  • Рок на века / Rock of Ages (Адам Шенкман, Мюзикл, драма, мелодрама, комедия ...
  • Супер Майк / Magic Mike (Стивен Содерберг, Драма, комедия, 2012) [BDRip 108 ...
  • На Дороге / On The Road (Уолтер Саллес, Драма, приключения, 2012) [BDRip 72 ...
  • Патруль / End of Watch (Дэвид Эйр, Триллер, драма, криминал, 2012) [BDRip 7 ...
  • Явление / The Apparition (Тодд Линкольн, Ужасы, триллер, 2012) [BDRip 720p, ...
  • Слова / The Words [EXTENDED] (Ли Стернтал, Драма, мелодрама, 2012) [BDRip 7 ...
  • Рок на века / Rock of Ages (Адам Шенкман, Драма, комедия, 2012) [HDRip, Дуб ...
  • Рок На Века / Rock Of Ages (Адам Шенкман, Мюзикл, драма, мелодрама, комедия ...
  • Информация
    Посетители, находящиеся в группе Гости, не могут оставлять комментарии к данной публикации.