вход на сайт

Имя пользователя :
Пароль :

Восстановление пароля Регистрация
Сказка. Есть (Елизавета Соломина, Константин Статский, Александр Баршак, Фэнтези, семейный, 2012) [BDRip 720p, Не требуется]
Рейтинг:
(голосов: 1)



[img]{THEME}/images/logopost.png[/img]



Сказка. Есть


Год выпуска: 2012
Страна: Россия
Производство: Наше Кино
Жанр: Фэнтези, семейный

Режиссёр: Елизавета Соломина, Константин Статский, Александр Баршак
В ролях: Константин Хабенский, Гоша Куценко, Ксения Раппопорт, Михаил Пореченков, Алексей Серебряков, Светлана Новикова, Михаил Козаков, Сергей Гармаш, Андрей Смоляков, Артур Смольянинов


Перевод: Не требуется
Субтитры: Отсутствуют

Описание: Хотели бы Вы очутиться в настоящей игрушечной стране, где плюшевый мишка, букварь и ваш mp-3 плеер, могут стать вашими друзьями и помогут выбраться из очень опасного приключения? Или побывать ночью в цирке, на необычном представлении, где вы оказались, «следуя за белым кроликом», как героиня другой известной сказки? Или оказаться в школе, где вместо уроков вас ждут «страшные приключения» и сказочные монстры? Именно такие истории пришлось пережить героям фильма «Сказка. Есть» — самым обычным детям 21 века.


Релиз от:



Качество: BDRip 720p | Сэмпл
Продолжительность: 01:31:35 час.


Формат: MKV
Видео кодек: x264
Аудио кодек: DTS
Видео: 1280x544 (2.35:1), 24 fps, x264 ~ 6 690 kbps avg, 0.400 bit/pixel
Аудио: 48 kHz/24-bit, DTS, 3/2 (L,C,R,l,r) + LFE ch, ~768.00 kbps avg

Дата премьеры (РФ): 13 сентября 2012, «Наше Кино»

MediaInfo ▼
General
Unique ID : 180340451426048610918386636122268021983 (0x87AC4EBC28A06C5AAD708B56EEF6B4DF)
Complete name : Skazka.est.2012.O.BDRip.720p.IRONCLUB.mkv
Format : Matroska
Format version : Version 2
File size : 4.86 GiB
Duration : 1h 31mn
Overall bit rate : 7 596 Kbps
Movie name : IRONCLUB
Encoded date : UTC 2012-10-06 11:47:30
Writing application : mkvmerge v4.9.1 (Ich will) сборка от Jul 11 2011 23:53:15
Writing library : libebml v1.2.1 + libmatroska v1.1.1

Video
ID : 1
Format : AVC
Format/Info : Advanced Video Codec
Format profile : [email protected]
Format settings, CABAC : Yes
Format settings, ReFrames : 12 frames
Codec ID : V_MPEG4/ISO/AVC
Duration : 1h 31mn
Bit rate : 6 690 Kbps
Width : 1 280 pixels
Height : 544 pixels
Display aspect ratio : 2.35:1
Frame rate : 24.000 fps
Color space : YUV
Chroma subsampling : 4:2:0
Bit depth : 8 bits
Scan type : Progressive
Bits/(Pixel*Frame) : 0.400
Stream size : 4.28 GiB (88%)
Title : Skazka est 2012 720p BluRay DTS x264-IRONCLUB
Writing library : x264 core 128 r2216 198a7ea
Encoding settings : cabac=1 / ref=12 / deblock=1:-3:-3 / analyse=0x3:0x113 / me=umh / subme=10 / psy=1 / psy_rd=1.05:0.00 / mixed_ref=1 / me_range=32 / chroma_me=1 / trellis=2 / 8x8dct=1 / cqm=0 / deadzone=21,11 / fast_pskip=0 / chroma_qp_offset=-2 / threads=12 / lookahead_threads=2 / sliced_threads=0 / nr=0 / decimate=1 / interlaced=0 / bluray_compat=0 / constrained_intra=0 / bframes=9 / b_pyramid=2 / b_adapt=2 / b_bias=0 / direct=3 / weightb=1 / open_gop=0 / weightp=2 / keyint=250 / keyint_min=24 / scenecut=40 / intra_refresh=0 / rc_lookahead=40 / rc=crf / mbtree=0 / crf=17.0 / qcomp=0.60 / qpmin=10 / qpmax=69 / qpstep=4 / vbv_maxrate=50000 / vbv_bufsize=62500 / crf_max=0.0 / nal_hrd=none / ip_ratio=1.40 / pb_ratio=1.30 / aq=1:1.00
Language : Russian
Default : Yes
Forced : Yes
Matrix coefficients : BT.709-5, BT.1361, IEC 61966-2-4 709, SMPTE RP177

Audio
ID : 2
Format : DTS
Format/Info : Digital Theater Systems
Codec ID : A_DTS
Duration : 1h 31mn
Bit rate mode : Constant
Bit rate : 755 Kbps
Channel(s) : 6 channels
Channel positions : Front: L C R, Side: L R, LFE
Sampling rate : 48.0 KHz
Bit depth : 24 bits
Compression mode : Lossy
Stream size : 494 MiB (10%)
Title : DD 5.1 @ 755 kbps - Original, BD
Language : Russian
Default : Yes
Forced : Yes

Menu
00:00:00.000 : en:00:00:00.000
00:00:00.333 : en:00:00:00.333
00:01:57.333 : en:00:01:57.333
00:13:40.000 : en:00:13:40.000
00:27:05.375 : en:00:27:05.375
00:37:06.416 : en:00:37:06.416
00:42:42.250 : en:00:42:42.250
00:51:29.041 : en:00:51:29.041
00:57:17.500 : en:00:57:17.500
01:03:33.666 : en:01:03:33.666
01:17:31.541 : en:01:17:31.541
f530c14bd53a2a5e694f9f56e0407d092247efb5Сказка. Есть (Елизавета Соломина, Константин Статский, Александр Баршак, Фэнтези, семейный, 2012) [BDRip 720p, Не требуется] Сказка. Есть (Елизавета Соломина, Константин Статский, Александр Баршак, Фэнтези, семейный, 2012) [BDRip 720p, Не требуется] " />

Аплоадер: Админ, дата: 6-10-2012, 18:56, торрент скачан: 359 раз

Понравилась раздача? Посмотрите эти:
  • Снежная королева (Максим Свешников, Владлен Барбэ, Мультфильм, фэнтези, при ...
  • Замуж на 2 дня / Un plan parfait (Паскаль Шомель, Мелодрама, комедия, прикл ...
  • Билет на Vegas (Гор Киракосян, Комедия, приключения, 2012) [BDRip 720p, Не ...
  • Марко Макако / Marco Macaco (Жан Рабек, Мультфильм, комедия, семейный, 2012 ...
  • Сказка. Есть (Елизавета Соломина, Константин Статский, Александр Баршак, Фэ ...
  • Между / Twixt (Френсис Форд Коппола, ужасы, фэнтези, триллер, 2011) [BDRip ...
  • Белый тигр (Карен Шахназаров, военный, 2012) [BDRip 720p, Не требуется]
  • Закон доблести / Act of Valor (Майк МакКой, Скотт Во, боевик, триллер, прик ...
  • Джок / Jock (Дункан МакНили, мультфильм, комедия, приключения, семейный, 20 ...
  • Матч (Андрей Малюков, Драма, спорт, 2012) [BDRip 720p, Не требуется]
  • Немножко женаты / The Five-Year Engagement (Николас Столлер, Мелодрама, ком ...
  • Медальон / Stolen (Саймон Уэст, Боевик, триллер, 2012) [BDRip 720p, Дубляж, ...
  • Неудержимые 2 / The Expendables 2 (Саймон Уэст, боевик, триллер, 2012) [BDR ...
  • Сказка. Есть (Елизавета Соломина, Константин Статский, Александр Баршак, Фэ ...
  • Любовь С Препятствиями / Un Bonheur Narrive Jamais Seul (Джеймс Хат, Мелодр ...
  • Орда (Андрей Прошкин, История, 2012) [BDRip 720p, Не требуется]
  • Москва 2017 / Branded (Джейми Брэдшоу, Александр Дулерайн, фантастика, трил ...
  • Третий лишний / Ted (Сет МакФарлейн, Фэнтези, комедия, 2012) [BDRip 720p, Д ...
  • ДухLess (Роман Прыгунов, Драма, 2012) [BDRip 720p, Не требуется]
  • Дневник слабака 3 / Diary of a Wimpy Kid: Dog Days (Дэвид Бауэрс, комедия, ...
  • 1812: Уланская баллада (Олег Фесенко, Приключения, 2012) [BDRip 720p, Не тр ...
  • С новым годом, мамы! (Сарик Андреасян, Артем Аксененко, Дмитрий Грачев, Ком ...
  • Джунгли (Александр Войтинский, мелодрама, комедия, приключения, 2012) [BDRi ...
  • Сказка. Есть (Елизавета Соломина, Константин Статский, Александр Баршак, Фэ ...
  • Сказка. Есть (Елизавета Соломина, Константин Статский, Александр Баршак, Фэ ...
  • Информация
    Посетители, находящиеся в группе Гости, не могут оставлять комментарии к данной публикации.