вход на сайт

Имя пользователя :
Пароль :

Восстановление пароля Регистрация
Неудержимые 2 / The Expendables 2 (Саймон Уэст, боевик, триллер, 2012) [BDRip 1080p, Дубляж]
Рейтинг:
(голосов: 1)



[img]{THEME}/images/logopost.png[/img]



Неудержимые 2 / The Expendables 2
«Они вернулись, чтобы зажечь»


Год выпуска: 2012
Страна: США
Производство: Millennium Films, Nu-Image Films
Жанр: Боевик, триллер

Режиссёр: Саймон Уэст
В ролях: Сильвестр Сталлоне, Джейсон Стэйтем, Дольф Лундгрен, Жан-Клод Ван Дамм, Терри Крюс, Арнольд Шварценеггер, Лиам Хемсворт, Нань Юй, Брюс Уиллис, Чак Норрис

Перевод: Дубляж
Субтитры: Отсутствуют

Описание: Можно ли попробовать изменить расстановку сил в мире? Да, если вы круты как Ван Дамм, у вас есть пять тонн плутония и первоклассные наемники. Стоит ли шутить с Уиллисом, когда вы ему серьезно задолжали? Нет, даже если вы опасны как Сталлоне и у вас за спиной Неудержимые.

Кого позвать на такое плевое дельце, как спасение мира? Пара проверенных ребят, Стэйтем и Норрис, явно не помешают. Пригодятся и малыш Хемсворт, и опасная красотка. Но команда будет неполной без Шварценеггера. Он реально вернулся! Все в сборе. Понеслась…

Релиз от:




Качество: BDRip 1080p | Сэмпл
Продолжительность: 01:42:16 час.

Формат: MKV
Видео кодек: x264
Аудио кодек:AC3, DTS
Видео: 1920x804 (2.40:1), 23.976 fps, x264 ~ 11.5 mb/s, 0.311 bit/pixel
Аудио#1: 48 kHz, AC3 Dolby Digital, 3/2 (L,C,R,l,r) + LFE ch, ~448 kbps - (Дубляж)
Аудио#2: 48 kHz, DTS, 3/2 (L,C,R,l,r) + LFE ch, ~1536.00 kbps avg- (Дубляж)

Дата премьеры (мир): 8 августа 2012
Дата премьеры (РФ): 16 августа 2012, «UPI»

MediaInfo ▼Format : Matroska
Format version : Version 2
File size : 9.61 GiB
Duration : 1h 42mn
Overall bit rate : 13.5 Mbps
Movie name : CMEGroup_BLUEBIRD
Encoded date : UTC 2012-10-05 22:05:14
Writing application : mkvmerge v5.8.0 (No Sleep / Pillow) built on Sep 2 2012 15:37:04
Writing library : libebml v1.2.3 + libmatroska v1.3.0

Video
ID : 1
Format : AVC
Format/Info : Advanced Video Codec
Format profile : [email protected]
Format settings, CABAC : Yes
Format settings, ReFrames : 4 frames
Codec ID : V_MPEG4/ISO/AVC
Duration : 1h 42mn
Bit rate : 11.5 Mbps
Width : 1 920 pixels
Height : 804 pixels
Display aspect ratio : 2.40:1
Frame rate : 23.976 fps
Color space : YUV
Chroma subsampling : 4:2:0
Bit depth : 8 bits
Scan type : Progressive
Bits/(Pixel*Frame) : 0.311
Stream size : 8.02 GiB (83%)
Writing library : x264 core 125 r2208 d9d2288
Encoding settings : cabac=1 / ref=4 / deblock=1:-3:-3 / analyse=0x3:0x113 / me=umh / subme=11 / psy=1 / psy_rd=1.00:0.00 / mixed_ref=1 / me_range=32 / chroma_me=1 / trellis=2 / 8x8dct=1 / cqm=0 / deadzone=21,11 / fast_pskip=1 / chroma_qp_offset=-2 / threads=6 / lookahead_threads=1 / sliced_threads=0 / nr=0 / decimate=1 / interlaced=0 / bluray_compat=0 / constrained_intra=0 / bframes=6 / b_pyramid=2 / b_adapt=2 / b_bias=0 / direct=2 / weightb=0 / open_gop=0 / weightp=2 / keyint=240 / keyint_min=23 / scenecut=40 / intra_refresh=0 / rc_lookahead=40 / rc=2pass / mbtree=1 / bitrate=11500 / ratetol=1.0 / qcomp=0.60 / qpmin=0 / qpmax=69 / qpstep=4 / cplxblur=20.0 / qblur=0.5 / ip_ratio=1.40 / aq=1:1.00 / zones=135046,147136,q=40
Language : English
Default : Yes
Forced : No

Audio #1
ID : 2
Format : AC-3
Format/Info : Audio Coding 3
Mode extension : CM (complete main)
Format settings, Endianness : Big
Codec ID : A_AC3
Duration : 1h 42mn
Bit rate mode : Constant
Bit rate : 448 Kbps
Channel(s) : 6 channels
Channel positions : Front: L C R, Side: L R, LFE
Sampling rate : 48.0 KHz
Bit depth : 16 bits
Compression mode : Lossy
Stream size : 328 MiB (3%)
Default : Yes
Forced : No

Audio #2
ID : 3
Format : DTS
Format/Info : Digital Theater Systems
Codec ID : A_DTS
Duration : 1h 42mn
Bit rate mode : Constant
Bit rate : 1 510 Kbps
Channel(s) : 6 channels
Channel positions : Front: L C R, Side: L R, LFE
Sampling rate : 48.0 KHz
Bit depth : 16 bits
Compression mode : Lossy
Stream size : 1.08 GiB (11%)
Language : Russian
Default : No
Forced : No

Menu
00:00:00.000 : :Under Siege
00:03:50.104 : :Take It or Leave It
00:08:50.780 : :No Good
00:13:20.424 : :Christmas Time
00
82d751fd6049211537550ed941811c3c529d1c48Неудержимые 2 / The Expendables 2 (Саймон Уэст, боевик, триллер, 2012) [BDRip 1080p, Дубляж] Неудержимые 2 / The Expendables 2 (Саймон Уэст, боевик, триллер, 2012) [BDRip 1080p, Дубляж] " />

Аплоадер: Админ, дата: 6-10-2012, 08:23, торрент скачан: 359 раз

Понравилась раздача? Посмотрите эти:
  • Неудержимые 2 / The Expendables 2 (Саймон Уэст, Боевик, триллер, 2012) [BDR ...
  • Неудержимые 2 / The Expendables 2 (Саймон Уэст, Боевик, триллер, 2012) [HDR ...
  • Неудержимые 2 / The Expendables 2 (Саймон Уэст, боевик, триллер, приключени ...
  • Неудержимые 2 / The Expendables 2 (Саймон Уэст, боевик, триллер, приключени ...
  • Неудержимые 2 / The Expendables 2 (Саймон Уэст, боевик, триллер, приключени ...
  • Неудержимые 2 / The Expendables 2 (Саймон Уэст, боевик, триллер, приключени ...
  • «Весёлые» каникулы / Get the Gringo (Адриан Грюнберг, Боевик, комедия, 2012 ...
  • Ворон / The Raven (Джеймс МакТиг, Триллер, детектив, 2012) [BDRip 720p, Дуб ...
  • Белоснежка и охотник [Театральная версия] / Snow White and the Huntsman [Th ...
  • Медальон / Stolen (Саймон Уэст, Боевик, триллер, 2012) [BDRip 720p, Дубляж, ...
  • Неудержимые 2 / The Expendables 2 (Саймон Уэст, боевик, триллер, 2012) [BDR ...
  • Неудержимые 2 / The Expendables 2 (Саймон Уэст, боевик, приключения, 2012) ...
  • Неудержимые 2 / The Expendables 2 (Саймон Уэст, Боевик, триллер, 2012) [BDR ...
  • Неудержимые 2 / The Expendables 2 (Саймон Уэст, боевик, триллер, 2012) [BDR ...
  • Неудержимые 2 / The Expendables 2 (Саймон Уэст, боевик, триллер, приключени ...
  • Неудержимые 2 / The Expendables 2 (Саймон Уэст, боевик, триллер, приключени ...
  • [iPhone, iPod] Неудержимые 2 / The Expendables 2 (Саймон Уэст, Боевик, Трил ...
  • Неудержимые 2 / The Expendables 2 (Саймон Уэст, боевик, триллер, приключени ...
  • Неудержимые 2 / The Expendables 2 (Саймон Уэст, Боевик, Триллер, 2012) [480 ...
  • Неудержимые 2 / The Expendables 2 (Саймон Уэст, Боевик, Триллер, 2012) [320 ...
  • Неудержимые 2 / The Expendables 2 (Саймон Уэст, Боевик, Триллер, 2012) [320 ...
  • Неудержимые 2 / The Expendables 2 (Саймон Уэст, боевик, триллер, 2012) [BDR ...
  • Неудержимые 2 / The Expendables 2 (Саймон Уэст, боевик, триллер, 2012) [Blu ...
  • Неудержимые 2 / The Expendables 2 (Саймон Уэст, боевик, триллер, 2012) [BDR ...
  • Неудержимые 2 / The Expendables 2 (Саймон Уэст, боевик, триллер, 2012) [HDR ...
  • Информация
    Посетители, находящиеся в группе Гости, не могут оставлять комментарии к данной публикации.