вход на сайт

Имя пользователя :
Пароль :

Восстановление пароля Регистрация
ЗЛО / V/H/S (Мэттью Беттинелли, Адам Вингард, Дэвид Брукнер, ужасы, 2012) [BDRip 720p, Дубляж]
Рейтинг:
(голосов: 1)



[img]{THEME}/images/logopost.png[/img]



ЗЛО / V/H/S
«Оно пробудилось»


Год выпуска: 2012
Страна: США
Производство: Bloody Disgusting
Жанр: Ужасы

Режиссёр: Мэттью Беттинелли, Адам Вингард, Дэвид Брукнер
В ролях: Кэлвин Ридер, Лэйн Хьюз, Адам Вингард, Ханна Файрман, Майк Донлан, Джо Сайкес, Дрю Сойер, Джессика Сэмс, Джо Сванберг, Софи Такал

Перевод: Дубляж
Субтитры: Отсутствуют

Описание: В поисках редкой видеозаписи трое взломщиков пробираются в таинственный особняк. Хозяин ждет их у включенного телевизора и, похоже, не слишком радуется визиту. Он мертв уже несколько дней, а его странное наследие — коллекция старых видеозаписей, покоится неподалеку.
Желая отыскать нужную пленку, друзья просматривают весь архив. Каждая запись погружает их в новый кошмар, настолько реальный, будто он происходит у них на глазах. И с каждой минутой где-то совсем рядом пробуждается оно, неведомое и беспощадное ЗЛО.

Релиз от:



Качество: BDRip 720p | Сэмпл
Продолжительность: 01:54:51 час.


Формат: MKV
Видео кодек: x264
Аудио кодек: AC3
Видео: 1280x720 (16:9), 23.976 fps, x264 ~ 6 779 kbps avg, 0.307 bit/pixel
Аудио: 48 kHz, AC3 Dolby Digital, 3/2 (L,C,R,l,r) + LFE ch, ~640 kbps- (Дубляж)


Дата премьеры (мир): 22 января 2012
Дата премьеры (РФ): 6 сентября 2012, «Каскад»

MediaInfo ▼General
Unique ID : 201537601634124350473129278605780575847 (0x979EBAEDC7570D31AEBBB116711FE667)
Complete name : Zlo.2012.D.BDRip.720p.IRONCLUB.mkv
Format : Matroska
Format version : Version 2
File size : 6.07 GiB
Duration : 1h 54mn
Overall bit rate : 7 569 Kbps
Movie name : IRONCLUB
Encoded date : UTC 2012-10-05 19:20:13
Writing application : mkvmerge v4.9.1 (Ich will) сборка от Jul 11 2011 23:53:15
Writing library : libebml v1.2.1 + libmatroska v1.1.1

Video
ID : 1
Format : AVC
Format/Info : Advanced Video Codec
Format profile : [email protected]
Format settings, CABAC : Yes
Format settings, ReFrames : 9 frames
Codec ID : V_MPEG4/ISO/AVC
Duration : 1h 54mn
Bit rate : 6 779 Kbps
Width : 1 280 pixels
Height : 720 pixels
Display aspect ratio : 16:9
Frame rate : 23.976 fps
Color space : YUV
Chroma subsampling : 4:2:0
Bit depth : 8 bits
Scan type : Progressive
Bits/(Pixel*Frame) : 0.307
Stream size : 5.44 GiB (90%)
Title : V/H/S 2012 720p BluRay AC3 x264-IRONCLUB
Writing library : x264 core 125 r2200 999b753
Encoding settings : cabac=1 / ref=9 / deblock=1:-3:-3 / analyse=0x3:0x113 / me=umh / subme=10 / psy=1 / psy_rd=1.05:0.00 / mixed_ref=1 / me_range=32 / chroma_me=1 / trellis=2 / 8x8dct=1 / cqm=0 / deadzone=21,11 / fast_pskip=0 / chroma_qp_offset=-2 / threads=12 / lookahead_threads=2 / sliced_threads=0 / nr=0 / decimate=1 / interlaced=0 / bluray_compat=0 / constrained_intra=0 / bframes=8 / b_pyramid=2 / b_adapt=2 / b_bias=0 / direct=3 / weightb=1 / open_gop=0 / weightp=2 / keyint=250 / keyint_min=23 / scenecut=40 / intra_refresh=0 / rc_lookahead=40 / rc=crf / mbtree=0 / crf=17.5 / qcomp=0.60 / qpmin=10 / qpmax=69 / qpstep=4 / vbv_maxrate=50000 / vbv_bufsize=62500 / crf_max=0.0 / nal_hrd=none / ip_ratio=1.40 / pb_ratio=1.30 / aq=1:1.00
Language : English
Default : Yes
Forced : Yes
Matrix coefficients : BT.709-5, BT.1361, IEC 61966-2-4 709, SMPTE RP177

Audio
ID : 2
Format : AC-3
Format/Info : Audio Coding 3
Mode extension : CM (complete main)
Format settings, Endianness : Big
Codec ID : A_AC3
Duration : 1h 54mn
Bit rate mode : Constant
Bit rate : 640 Kbps
Channel(s) : 6 channels
Channel positions : Front: L C R, Side: L R, LFE
Sampling rate : 48.0 KHz
Bit depth : 16 bits
Compression mode : Lossy
Stream size : 526 MiB (8%)
Title : DD 5.1 @ 640 kbps - Dub, BD
Language : Russian
Default : Yes
Forced : Yes

Menu
00:00:00.000 : en:00:00:00.000
00:10:12.612 : en:00:10:12.612
00:21:34.543 : en:00:21:34.543
00:33:15.284 : en:00:33:15.284
00:44:34.797 : en:00:44:34.797
00:55:33.121 : en:00:55:33.121
01:05:58.871 : en:01:05:58.871
01:14:23.876 : en:01:14:23.876
01:27:02.133 : en:01:27:02.133
01:40:24.643 : en:01:40:24.643
01:5
6a677405d5c1fa65e7abbe9a7925098f7b9183ffЗЛО / V/H/S (Мэттью Беттинелли, Адам Вингард, Дэвид Брукнер, ужасы, 2012) [BDRip 720p, Дубляж] ЗЛО / V/H/S (Мэттью Беттинелли, Адам Вингард, Дэвид Брукнер, ужасы, 2012) [BDRip 720p, Дубляж] " />

Аплоадер: Админ, дата: 6-10-2012, 08:06, торрент скачан: 359 раз

Понравилась раздача? Посмотрите эти:
  • Замуж на 2 дня / Un plan parfait (Паскаль Шомель, Мелодрама, комедия, прикл ...
  • Анна Каренина / Anna Karenina (Джо Райт, Драма, мелодрама, 2012) [BDRip 720 ...
  • Толстяк на ринге / Here Comes the Boom (Фрэнк Корачи, Боевик, комедия, 201 ...
  • Марко Макако / Marco Macaco (Жан Рабек, Мультфильм, комедия, семейный, 2012 ...
  • Белый тигр (Карен Шахназаров, военный, 2012) [BDRip 720p, Не требуется]
  • Джок / Jock (Дункан МакНили, мультфильм, комедия, приключения, семейный, 20 ...
  • Пираньи 3DD / Piranha 3DD (Джон Гулажер, ужасы, триллер, комедия, 2012) [BD ...
  • Три метра над уровнем неба: Я тебя хочу / Tengo ganas de ti / I Want You (Ф ...
  • Золушка: Полный вперед! / Cendrillon au Far West (Паскаль Эрольд, Мультфиль ...
  • Немножко женаты / The Five-Year Engagement (Николас Столлер, Мелодрама, ком ...
  • Семь футов / Seven Below (Кевин Каррауэй, Ужасы, триллер, 2012) [BDRip 720p ...
  • Красные огни / Red Lights (Родриго Кортес, Ужасы, триллер, драма, 2012) [BD ...
  • Медальон / Stolen (Саймон Уэст, Боевик, триллер, 2012) [BDRip 720p, Дубляж, ...
  • Неудержимые 2 / The Expendables 2 (Саймон Уэст, боевик, триллер, 2012) [BDR ...
  • Рок на века / Rock of Ages (Адам Шенкман, Мюзикл, драма, мелодрама, комедия ...
  • Любовь С Препятствиями / Un Bonheur Narrive Jamais Seul (Джеймс Хат, Мелодр ...
  • Москва 2017 / Branded (Джейми Брэдшоу, Александр Дулерайн, фантастика, трил ...
  • Цунами 3D / Bait (Кимбл Рендалл, Ужасы, боевик, триллер, 2011) [BDRip 720p ...
  • Третий лишний / Ted (Сет МакФарлейн, Фэнтези, комедия, 2012) [BDRip 720p, Д ...
  • Патруль / End of Watch (Дэвид Эйр, Триллер, драма, криминал, 2012) [BDRip 7 ...
  • Явление / The Apparition (Тодд Линкольн, Ужасы, триллер, 2012) [BDRip 720p, ...
  • ЗЛО / V/H/S (Мэттью Беттинелли, Адам Вингард, Дэвид Брукнер, ужасы, триллер ...
  • ЗЛО / V/H/S (Мэттью Беттинелли, Адам Вингард, Дэвид Брукнер, ужасы, 2012) [ ...
  • ЗЛО / V/H/S (Мэттью Беттинелли, Адам Вингард, Дэвид Брукнер, ужасы, 2012) [ ...
  • ЗЛО / V/H/S (Мэттью Беттинелли, Адам Вингард, Дэвид Брукнер, ужасы, 2012) [ ...
  • Информация
    Посетители, находящиеся в группе Гости, не могут оставлять комментарии к данной публикации.