вход на сайт

Имя пользователя :
Пароль :

Восстановление пароля Регистрация
Неудержимые 2 / The Expendables 2 (Саймон Уэст, боевик, триллер, 2012) [BDRip 720p, Дубляж]
Рейтинг:
(голосов: 1)



[img]{THEME}/images/logopost.png[/img]



Неудержимые 2 / The Expendables 2
«Они вернулись, чтобы зажечь»


Год выпуска: 2012
Страна: США
Производство: Millennium Films, Nu-Image Films
Жанр: Боевик, триллер

Режиссёр: Саймон Уэст
В ролях: Сильвестр Сталлоне, Джейсон Стэйтем, Дольф Лундгрен, Жан-Клод Ван Дамм, Терри Крюс, Арнольд Шварценеггер, Лиам Хемсворт, Нань Юй, Брюс Уиллис, Чак Норрис

Перевод: Дубляж
Субтитры: Отсутствуют

Описание: Можно ли попробовать изменить расстановку сил в мире? Да, если вы круты как Ван Дамм, у вас есть пять тонн плутония и первоклассные наемники. Стоит ли шутить с Уиллисом, когда вы ему серьезно задолжали? Нет, даже если вы опасны как Сталлоне и у вас за спиной Неудержимые.

Кого позвать на такое плевое дельце, как спасение мира? Пара проверенных ребят, Стэйтем и Норрис, явно не помешают. Пригодятся и малыш Хемсворт, и опасная красотка. Но команда будет неполной без Шварценеггера. Он реально вернулся! Все в сборе. Понеслась…

Релиз от:




Качество: BDRip 720p | Сэмпл
Продолжительность: 01:42:16 час.

Формат: MKV
Видео кодек: x264
Аудио кодек: AC3
Видео: 1280x536 (2.40:1), 23.976 fps, x264 ~ 5 596 kbps avg, 0.340 bit/pixel
Аудио: 48 kHz, AC3 Dolby Digital, 3/2 (L,C,R,l,r) + LFE ch, ~448 kbps - (Дубляж)

Дата премьеры (мир): 8 августа 2012
Дата премьеры (РФ): 16 августа 2012, «UPI»

MediaInfo ▼x264 [info]: frame I:1751 Avg QP:16.11 size: 87241
x264 [info]: frame P:30355 Avg QP:17.36 size: 47258
x264 [info]: frame B:115031 Avg QP:19.28 size: 24324
x264 [info]: consecutive B-frames: 2.5% 2.5% 8.9% 14.2% 13.3% 35.8% 8.6% 8.0% 6.2%

General
Unique ID : 181181733807887348363816061912443831926 (0x884E5528A8C3DC379CE4DD28C13CC676)
Complete name : Neuderzhimye.2.2012.D.BDRip.720p.IRONCLUB.mkv
Format : Matroska
Format version : Version 2
File size : 4.41 GiB
Duration : 1h 42mn
Overall bit rate : 6 167 Kbps
Movie name : IRONCLUB
Encoded date : UTC 2012-10-05 09:48:28
Writing application : mkvmerge v4.9.1 (Ich will) сборка от Jul 11 2011 23:53:15
Writing library : libebml v1.2.1 + libmatroska v1.1.1

Video
ID : 1
Format : AVC
Format/Info : Advanced Video Codec
Format profile : [email protected]
Format settings, CABAC : Yes
Format settings, ReFrames : 12 frames
Codec ID : V_MPEG4/ISO/AVC
Duration : 1h 42mn
Bit rate : 5 596 Kbps
Width : 1 280 pixels
Height : 536 pixels
Display aspect ratio : 2.40:1
Frame rate : 23.976 fps
Color space : YUV
Chroma subsampling : 4:2:0
Bit depth : 8 bits
Scan type : Progressive
Bits/(Pixel*Frame) : 0.340
Stream size : 4.00 GiB (91%)
Title : The Expendables 2 2012 720p BluRay AC3 x264-IRONCLUB
Writing library : x264 core 125 r2200 999b753
Encoding settings : cabac=1 / ref=12 / deblock=1:-3:-3 / analyse=0x3:0x113 / me=umh / subme=10 / psy=1 / psy_rd=1.05:0.00 / mixed_ref=1 / me_range=32 / chroma_me=1 / trellis=2 / 8x8dct=1 / cqm=0 / deadzone=21,11 / fast_pskip=0 / chroma_qp_offset=-2 / threads=12 / lookahead_threads=2 / sliced_threads=0 / nr=0 / decimate=1 / interlaced=0 / bluray_compat=0 / constrained_intra=0 / bframes=8 / b_pyramid=2 / b_adapt=2 / b_bias=0 / direct=3 / weightb=1 / open_gop=0 / weightp=2 / keyint=250 / keyint_min=23 / scenecut=40 / intra_refresh=0 / rc_lookahead=40 / rc=crf / mbtree=0 / crf=17.5 / qcomp=0.60 / qpmin=10 / qpmax=69 / qpstep=4 / vbv_maxrate=50000 / vbv_bufsize=62500 / crf_max=0.0 / nal_hrd=none / ip_ratio=1.40 / pb_ratio=1.30 / aq=1:1.00
Language : English
Default : Yes
Forced : Yes
Matrix coefficients : BT.709-5, BT.1361, IEC 61966-2-4 709, SMPTE RP177

Audio
ID : 2
Format : AC-3
Format/Info : Audio Coding 3
Mode extension : CM (complete main)
Format settings, Endianness : Big
Codec ID : A_AC3
Duration : 1h 42mn
Bit rate mode : Constant
Bit rate : 448 Kbps
Channel(s) : 6 channels
Channel positions : Front: L C R, Side: L R, LFE
Sampling rate : 48.0 KHz
Bit depth : 16 bits
Compression mode : Lossy
Stream size : 328 MiB (7%)
Tit
6a5533b1be810b957ff8cdab31151e9a315d3c68Неудержимые 2 / The Expendables 2 (Саймон Уэст, боевик, триллер, 2012) [BDRip 720p, Дубляж] Неудержимые 2 / The Expendables 2 (Саймон Уэст, боевик, триллер, 2012) [BDRip 720p, Дубляж] " />

Аплоадер: Админ, дата: 5-10-2012, 22:02, торрент скачан: 359 раз

Понравилась раздача? Посмотрите эти:
  • Неудержимые 2 / The Expendables 2 (Саймон Уэст, Боевик, триллер, 2012) [BDR ...
  • Неудержимые 2 / The Expendables 2 (Саймон Уэст, Боевик, триллер, 2012) [HDR ...
  • Неудержимые 2 / The Expendables 2 (Саймон Уэст, боевик, триллер, приключени ...
  • Неудержимые 2 / The Expendables 2 (Саймон Уэст, боевик, триллер, приключени ...
  • Неудержимые 2 / The Expendables 2 (Саймон Уэст, боевик, триллер, приключени ...
  • Неудержимые 2 / The Expendables 2 (Саймон Уэст, боевик, триллер, приключени ...
  • Медальон / Stolen (Саймон Уэст, Боевик, триллер, 2012) [BDRip 720p, Дубляж, ...
  • Неудержимые 2 / The Expendables 2 (Саймон Уэст, боевик, триллер, 2012) [BDR ...
  • Неудержимые 2 / The Expendables 2 (Саймон Уэст, боевик, приключения, 2012) ...
  • Неудержимые 2 / The Expendables 2 (Саймон Уэст, боевик, триллер, 2012) [BDR ...
  • Неудержимые 2 / The Expendables 2 (Саймон Уэст, боевик, триллер, приключени ...
  • Неудержимые 2 / The Expendables 2 (Саймон Уэст, боевик, триллер, приключени ...
  • [iPhone, iPod] Неудержимые 2 / The Expendables 2 (Саймон Уэст, Боевик, Трил ...
  • Неудержимые 2 / The Expendables 2 (Саймон Уэст, Боевик, Триллер, 2012) [480 ...
  • Неудержимые 2 / The Expendables 2 (Саймон Уэст, Боевик, Триллер, 2012) [320 ...
  • Неудержимые 2 / The Expendables 2 (Саймон Уэст, Боевик, Триллер, 2012) [320 ...
  • Неудержимые 2 / The Expendables 2 (Саймон Уэст, боевик, триллер, 2012) [BDR ...
  • Неудержимые 2 / The Expendables 2 (Саймон Уэст, боевик, триллер, 2012) [Blu ...
  • Неудержимые 2 / The Expendables 2 (Саймон Уэст, боевик, триллер, 2012) [BDR ...
  • Неудержимые 2 / The Expendables 2 (Саймон Уэст, боевик, триллер, 2012) [HDR ...
  • Информация
    Посетители, находящиеся в группе Гости, не могут оставлять комментарии к данной публикации.