вход на сайт

Имя пользователя :
Пароль :

Восстановление пароля Регистрация
Бульвар страха / Rosewood Lane (Виктор Сальва, Ужасы, триллер, 2011) [BD-Remux 1080p, Профессиональный (многоголосый, закадровый), Любительский (одноголосый закадровый,) Оригинал (английский)]
Рейтинг:
(голосов: 1)



[img]{THEME}/images/logopost.png[/img]



Бульвар страха / Rosewood Lane
«Зло живет в самых неожиданных местах»


Год выпуска: 2011
Страна: США
Производство: Hollywood Media Bridge
Жанр: Ужасы, триллер

Режиссёр: Виктор Сальва
В ролях: Роуз МакГоун, Рэй Уайз, Лорен Велес, Лин Шэй, Билл Фагербакки, Лесли-Энн Даун, Рэнс Ховард, Эштон Мойо, Джадсон Миллс, Том Тарантини

Перевод: Профессиональный (многоголосый, закадровый) [лицензия], Любительский (одноголосый закадровый), Оригинал (английский)
Озвучка: Хихикающий доктор
Субтитры: Отсутствуют

Описание: Вернувшись в родной городок, радиоведущая (и психиатр по совместительству) Сонни Блэк замечает странное поведение своего соседа, мальчика — разносчика газет. В городе как раз происходят убийства и поведение мальчика заставляет Сонни обратить на него самое пристальное внимание…



Качество: BD-Remux 1080p | Сэмпл
Продолжительность: 01:35:56 час.


Формат: MKV
Видео кодек: x264
Аудио кодек: AC3, DTS-HD Master Audio
Видео: 1920x1080 (16:9), 23.976 fps, x264 ~19,5 mb/s, 0.393 bit/pixel
Аудио#1: 48 kHz, AC3 Dolby Digital, 3/2 (L,C,R,l,r) + LFE ch, ~384 kbps - (MVO)
Аудио#2: 48 kHz, AC3, 2/0 (L,R) ch, ~192.00 kbps avg (Хихикающий доктор)
Аудио#3: DTS-HD Master Audio 2446 kbps 5.1 / 48 kHz / 2446 kbps / 16-bit (DTS Core: 5.1 / 48 kHz / 1510 kbps / 16-bit) - (Оригинал)


Дата премьеры (мир): 15 октября 2011
Дата премьеры (РФ): 5 июля 2012, «Top Film Distribution»

MediaInfo ▼General
Unique ID : 252256461401687358764411071813463653854 (0xBDC6D3C7D3B2EE7BBE4B8C2F83DD3DDE)
Complete name : F:HDБульвар страха.2011.Blu-Ray.Remux.(1080p).mkv
Format : Matroska
Format version : Version 2
File size : 15.4 GiB
Duration : 1h 35mn
Overall bit rate mode : Variable
Overall bit rate : 23.0 Mbps
Encoded date : UTC 2012-09-27 09:26:18
Writing application : mkvmerge v5.8.0 (No Sleep / Pillow) built on Sep 2 2012 15:37:04
Writing library : libebml v1.2.3 + libmatroska v1.3.0

Video
ID : 1
Format : AVC
Format/Info : Advanced Video Codec
Format profile : [email protected]
Format settings, CABAC : Yes
Format settings, ReFrames : 4 frames
Muxing mode : Container [email protected]
Codec ID : V_MPEG4/ISO/AVC
Duration : 1h 35mn
Bit rate mode : Variable
Bit rate : 19.5 Mbps
Maximum bit rate : 35.0 Mbps
Width : 1 920 pixels
Height : 1 080 pixels
Display aspect ratio : 16:9
Frame rate : 23.976 fps
Standard : NTSC
Color space : YUV
Chroma subsampling : 4:2:0
Bit depth : 8 bits
Scan type : Progressive
Bits/(Pixel*Frame) : 0.393
Stream size : 13.1 GiB (85%)
Default : No
Forced : No
Color primaries : BT.709-5, BT.1361, IEC 61966-2-4, SMPTE RP177
Transfer characteristics : BT.709-5, BT.1361
Matrix coefficients : BT.709-5, BT.1361, IEC 61966-2-4 709, SMPTE RP177

Audio #1
ID : 2
Format : AC-3
Format/Info : Audio Coding 3
Mode extension : CM (complete main)
Format settings, Endianness : Big
Codec ID : A_AC3
Duration : 1h 35mn
Bit rate mode : Constant
Bit rate : 384 Kbps
Channel(s) : 6 channels
Channel positions : Front: L C R, Side: L R, LFE
Sampling rate : 48.0 KHz
Bit depth : 16 bits
Compression mode : Lossy
Stream size : 263 MiB (2%)
Title : MVO
Language : Russian
Default : Yes
Forced : No

Audio #2
ID : 3
Format : AC-3
Format/Info : Audio Coding 3
Mode extension : CM (complete main)
Format settings, Endianness : Big
Codec ID : A_AC3
Duration : 1h 35mn
Bit rate mode : Constant
Bit rate : 192 Kbps
Channel(s) : 2 channels
Channel positions : Front: L R
Sampling rate : 44.1 KHz
Bit depth : 16 bits
Compression mode : Lossy
Stream size : 132 MiB (1%)
Title : VO
Language : Russian
Default : No
Forced : No

Audio #3
ID : 4
Format : DTS
Format/Info : Digital Theater Systems
Format profile : MA / Core
Codec ID : A_DTS
Duration : 1h 35mn
Bit rate mode : Variable
Bit rate : 2 389 Kbps / 1 510 Kbps
Channel(s) : 6 channels
Channel positions : Front: L C R, Side: L R, LFE
Sampling rate : 48.0 KHz
Bit depth : 16 bits
Compression mode : Lossless / Lossy
Language : Engl
603bee491bbbf116dfcd994107d00da1adf5de92Бульвар страха / Rosewood Lane (Виктор Сальва, Ужасы, триллер, 2011) [BD-Remux 1080p, Профессиональный (многоголосый, закадровый), Любительский (одноголосый закадровый,) Оригинал (английский)] Бульвар страха / Rosewood Lane (Виктор Сальва, Ужасы, триллер, 2011) [BD-Remux 1080p, Профессиональный (многоголосый, закадровый), Любительский (одноголосый закадровый,) Оригинал (английский)] " />

Аплоадер: Админ, дата: 30-09-2012, 21:18, торрент скачан: 359 раз

Понравилась раздача? Посмотрите эти:
  • Пастырь / Priest (Скотт Чарльз Стюарт, ужасы, фантастика, боевик, триллер, ...
  • Богатенький Ричи / Ri¢hie Ri¢h / Richie Rich (Дональд Питри, комедия, семей ...
  • Штурм Белого дома / White House Down (Роланд Эммерих, боевик, триллер, 2013 ...
  • Мужество / Wymyk (Грег Зглински, драма, 2011) [DVDRip, Любительский (одного ...
  • 23:59 / 23:59 (Гилберт Чан, Ужасы, 2011) [HDRip, Любительский (одноголосый ...
  • Нубы / Noobz (Блейк Фриман, Комедия, 2012) [BDRemux 1080p, Профессиональный ...
  • Дом с паранормальными явлениями / A Haunted House (Майкл Тиддес, Ужасы, ком ...
  • Честь дракона / Tom yum goong (Прачья Пинкаю, боевик, триллер, драма, крим ...
  • Захват / Carjacked (Джон Бонито, триллер, 2011)[BDRip, Профессиональный (мн ...
  • Иван Царевич и Серый Волк (Владимир Торопчин, мультфильм, семейный, 2011) [ ...
  • Неудержимые / The Expendables (Сильвестр Сталлоне, боевик, триллер, приключ ...
  • Пол: Секретный материальчик / Расширенная версия / Paul (Грег Моттола, фант ...
  • Притворись моей женой / Just go with it (Деннис Дуган, мелодрама, комедия, ...
  • Рапунцель: Счастлива навсегда / Tangled Ever After ( Нэйтан Грено, Байрон Х ...
  • Пираньи 3DD / Piranha 3DD (Джон Гулажер, ужасы, триллер, комедия, 2012) [BD ...
  • Призрак в школе / Haunted High (Джеффри Скотт Ландо, ужасы, фантастика, 201 ...
  • PBS: Природа – Гималаи / PBS: Nature – The Himalayas (Крис Морган, Докумен ...
  • Бульвар страха / Rosewood Lane (Виктор Сальва, ужасы, триллер, 2011) [DVDRi ...
  • Бульвар страха / Rosewood Lane (Виктор Сальва, ужасы, триллер, 2011) [DVDRi ...
  • Бульвар страха / Rosewood Lane (Виктор Сальва, Ужасы, триллер, 2011) [DVD5, ...
  • Информация
    Посетители, находящиеся в группе Гости, не могут оставлять комментарии к данной публикации.