вход на сайт

Имя пользователя :
Пароль :

Восстановление пароля Регистрация
Белоснежка и охотник [Расширенная версия] / Snow White and the Huntsman [UNRATED] (Руперт Сандерс, Фэнтези, боевик, драма, приключения, 2012) [BD-Remux 1080p, Дубляж, Оригинал (английский), Sub]
Рейтинг:
(голосов: 1)



[img]{THEME}/images/logopost.png[/img]



Белоснежка и охотник [Расширенная версия]/ Snow White and the Huntsman [UNRATED]
«Лишь одна будет править»


Год выпуска: 2012
Страна: США
Производство: Roth Films, Universal Pictures
Жанр: Фэнтези, боевик, драма, приключения

Режиссёр: Руперт Сандерс
В ролях: Кристен Стюарт, Крис Хемсворт, Шарлиз Терон, Сэм Клафлин, Сэм Спруэлл, Иэн МакШейн, Боб Хоскинс, Рэй Уинстон, Ник Фрост, Эдди Марсан

Перевод: Дубляж, Оригинал (английский)
Субтитры: Русские, английские

Описание: Тьма приближается. Она прячется в лесах, спускается с гор, застилает небо. Никто не укроется от магического зеркала Королевы, живущей в неприступном замке, охраняемом бесчисленной армией. Но над Белоснежкой злые чары не властны. И тогда Королева отправляет Охотника, чтобы он принес ей сердце соперницы. Но очарованный Белоснежкой, он встает на ее сторону. Грядет великая битва. Лишь одна будет править.Качество: BD-Remux 1080p | Сэмпл
Продолжительность: 02:11:33 час.


Формат: MKV
Видео кодек: x264
Аудио кодек: AC3, DTS-HD Master Audio
Видео: 1920x1080 (16:9), 23.976 fps, x264 ~25,4 mb/s, 0.512 bit/pixel
Аудио#1: 48 kHz, AC3 Dolby Digital, 3/2 (L,C,R,l,r) + LFE ch, ~448 kbps - (Дубляж)
Аудио#2: DTS-HD Master Audio 4637 kbps 7.1 / 48 kHz / 4637 kbps / 24-bit (DTS Core: 5.1 / 48 kHz / 1509 kbps / 24-bit) - (Оригинал)


Дата премьеры (мир): 30 мая 2012
Дата премьеры (РФ): 14 июня 2012, «UPI»

MediaInfo ▼Общее
Уникальный идентификатор : 231459609089231467732957239827942410804 (0xAE217FCBF8C2D149A9E7726E342D0A34)
Полное имя : N:/DATABelosnegka.i.ohotnik.2012.MPEG-4-AVC.BluRay-Remux(1080p).mkv
Формат : Matroska
Версия формата : Version 2
Размер файла : 25,8 Гбайт
Продолжительность : 2 ч. 11 м.
Режим общего битрейта : Переменный
Общий поток : 28,1 Мбит/сек
Название фильма : --SCHUMAHER--
Дата кодирования : UTC 2012-09-21 11:44:16
Программа кодирования : mkvmerge v5.8.0 (No Sleep / Pillow) built on Sep 2 2012 15:37:04
Библиотека кодирования : libebml v1.2.3 + libmatroska v1.3.0

Видео
Идентификатор : 1
Формат : AVC
Формат/Информация : Advanced Video Codec
Профиль формата : [email protected]
Параметр CABAC формата : Да
Параметр ReFrames формата : 4 кадра
Идентификатор кодека : V_MPEG4/ISO/AVC
Продолжительность : 2 ч. 11 м.
Вид битрейта : Переменный
Битрейт : 25,4 Мбит/сек
Максимальный битрейт : 35,0 Мбит/сек
Ширина : 1920 пикселей
Высота : 1080 пикселей
Соотношение сторон : 16:9
Частота кадров : 23,976 кадра/сек
Цветовое пространство : YUV
Субдискретизация насыщенности : 4:2:0
Битовая глубина : 8 бит
Тип развёртки : Прогрессивная
Бит/(Пиксели*Кадры) : 0.512
Размер потока : 23,4 Гбайт (91%)
Язык : English
Default : Да
Forced : Да

Аудио #1
Идентификатор : 2
Формат : AC-3
Формат/Информация : Audio Coding 3
Расширение режима : CM (complete main)
Параметр Endianness формата : Big
Идентификатор кодека : A_AC3
Продолжительность : 2 ч. 11 м.
Вид битрейта : Постоянный
Битрейт : 448 Кбит/сек
Каналы : 6 каналов
Расположение каналов : Front: L C R, Side: L R, LFE
Частота : 48,0 КГц
Битовая глубина : 16 бит
Метод сжатия : С потерями
Размер потока : 422 Мбайт (2%)
Язык : Russian
Default : Да
Forced : Да

Аудио #2
Идентификатор : 3
Формат : DTS
Формат/Информация : Digital Theater Systems
Профиль формата : MA / Core
Идентификатор кодека : A_DTS
Продолжительность : 2 ч. 11 м.
Вид битрейта : Переменный
Битрейт : 1597 Кбит/сек / 1510 Кбит/сек
Каналы : 8 каналов / 6 каналов
Расположение каналов : Front: L C R, Side: L R, Back: L R, LFE / Front: L C R, Side: L R, LFE
Частота : 48,0 КГц
Битовая глубина : 24 бит
Метод сжатия : Без потерь / Lossy
Язык : English
Default : Нет
Forced : Нет

Текст #1
Идентификатор : 4
Формат : UTF-8
Идентификатор кодека : S_TEXT/UTF8
Идентификатор кодека/Информация : UTF-8 Plain Text
Язык : Russian
Default : Нет
Forced : Нет

Текст #2
Идентификатор : 5
Формат : UTF-8
Идентификатор кодека : S_TEXT/UTF8
Идентификатор кодека/Информа
9982c80f3d4f624edb61f5253613ad61f5ecbaccБелоснежка и охотник [Расширенная версия] / Snow White and the Huntsman [UNRATED] (Руперт Сандерс, Фэнтези, боевик, драма, приключения, 2012) [BD-Remux 1080p, Дубляж, Оригинал (английский), Sub] Белоснежка и охотник [Расширенная версия] / Snow White and the Huntsman [UNRATED] (Руперт Сандерс, Фэнтези, боевик, драма, приключения, 2012) [BD-Remux 1080p, Дубляж, Оригинал (английский), Sub] " />

Аплоадер: Админ, дата: 22-09-2012, 19:38, торрент скачан: 359 раз

Понравилась раздача? Посмотрите эти:
  • Белоснежка и охотник / Snow White and the Huntsman (Руперт Сандерс, фэнтези ...
  • Белоснежка и охотник [Расширенная версия] / Snow White and the Huntsman [UN ...
  • Белоснежка и охотник [Расширенная версия] / Snow White and the Huntsman [UN ...
  • Белоснежка и охотник [Расширенная версия] / Snow White and the Huntsman [UN ...
  • Белоснежка и охотник / Snow White and the Huntsman (Руперт Сандерс, фэнтези ...
  • Белоснежка и охотник [Расширенная версия] / Snow White and the Huntsman [UN ...
  • Белоснежка и охотник [Расширенная версия] / Snow White and the Huntsman [UN ...
  • Белоснежка и охотник [Театральная версия] / Snow White and the Huntsman [Th ...
  • Белоснежка и охотник [Расширенная версия] / Snow White and the Huntsman [UN ...
  • Белоснежка и охотник [Расширенная версия] / Snow White and the Huntsman [Ex ...
  • Белоснежка и охотник [Расширенная версия] / Snow White and the Huntsman [Ex ...
  • Белоснежка и охотник [Расширенная версия] / Snow White and the Huntsman [U ...
  • Белоснежка и охотник [Расширенная версия] / Snow White and the Huntsman [UN ...
  • Белоснежка и охотник [Расширенная версия] / Snow White and the Huntsman [UN ...
  • Белоснежка и охотник [Расширенная версия] / Snow White and the Huntsman [UN ...
  • Белоснежка и охотник [Расширенная версия] / Snow White and the Huntsman [UN ...
  • Белоснежка и охотник / Snow White and the Huntsman [2-in-1: Theatrical & Di ...
  • [Phone, iPod] Белоснежка и охотник / Snow White and the Huntsman (Руперт Са ...
  • Белоснежка и охотник [Расширенная версия] / Snow White and the Huntsman [UN ...
  • Белоснежка и охотник [Расширенная версия] / Snow White and the Huntsman [Ex ...
  • Белоснежка и охотник [Расширенная версия] / Snow White and the Huntsman [UN ...
  • Белоснежка и охотник [Театральная версия] / Snow White and the Huntsman [Th ...
  • Белоснежка и охотник / Snow White and the Huntsman (Руперт Сандерс, фэнтези ...
  • Белоснежка и охотник [Театральная версия] / Snow White and the Huntsman [Th ...
  • Белоснежка и охотник / Snow White and the Huntsman (Руперт Сандерс / Rupert ...
  • Информация
    Посетители, находящиеся в группе Гости, не могут оставлять комментарии к данной публикации.