вход на сайт

Имя пользователя :
Пароль :

Восстановление пароля Регистрация
Красные огни / Red Lights (Родриго Кортес, Ужасы, триллер, драма, 2012) [BD-Remux 1080p, Дубляж, Оригинал (английский), Sub]
Рейтинг:
(голосов: 1)



[img]{THEME}/images/logopost.png[/img]



Красные Огни / Red Lights
«Готов ли ты поверить в это?»


Год выпуска: 2012
Страна: Испания, США
Производство: Antena 3 Films, Cindy Cowan Entertainment, Nostromo Pictures
Жанр: Ужасы, триллер, драма

Режиссёр: Родриго Кортес
В ролях: Роберт Де Ниро, Сигурни Уивер, Киллиан Мёрфи, Элизабет Олсен, Тоби Джонс, Джоэли Ричардсон, Крэйг Робертс, Берн Горман, Карен Шенас-Дэвид, Жан Корнет

Перевод: Дубляж, Оригинал (английский)
Субтитры: Английские

Описание: Парапсихолог Маргарэт Мэтисон изучает паранормальные явления и уже стоит на пороге потрясающих открытий. В своих исследованиях она обращается за помощью к знаменитому когда-то экстрасенсу, который соглашается вернуться к своему занятию спустя 30 лет, не подозревая, чем могут обернуться опасные опыты с неизвестным…
Качество: BD-Remux 1080p | Сэмпл
Продолжительность:01:53:51 час.


Формат: MKV
Видео кодек: x264
Аудио кодек: DTS,Dolby TrueHD Audio
Видео: 1920x1080 (16:9), 23.976 fps, x264 ~18,9 mb/s, 0.381 bit/pixel
Аудио#1: 48 kHz/24-bit, DTS, 3/2 (L,C,R,l,r) + LFE ch, ~755.00 kbps avg- (Дубляж)
Аудио#2: 48 kHz/16-bit, Dolby TrueHD 5.1, ~1331.00 kbps avg (AC3 Embedded: 5.1 / 48 kHz / 640 kbps)- (Оригинал)


Дата премьеры (мир): 20 января 2012
Дата премьеры (РФ): 19 июля 2012, «Парадиз»


MediaInfo ▼ Общее
Уникальный идентификатор : 211763489019121003542391336378358083031 (0x9F502A1A3F02DC828EBF6E536E50ADD7)
Полное имя : N:/DATAKrasnye.ogni.2012.MPEG-4-AVC.BluRay-Remux(1080p).mkv
Формат : Matroska
Версия формата : Version 2
Размер файла : 17,2 Гбайт
Продолжительность : 1 ч. 53 м.
Режим общего битрейта : Переменный
Общий поток : 21,7 Мбит/сек
Название фильма : --SCHUMAHER--
Дата кодирования : UTC 2012-09-20 18:27:26
Программа кодирования : mkvmerge v5.8.0 (No Sleep / Pillow) built on Sep 2 2012 15:37:04
Библиотека кодирования : libebml v1.2.3 + libmatroska v1.3.0

Видео
Идентификатор : 1
Формат : AVC
Формат/Информация : Advanced Video Codec
Профиль формата : [email protected]
Параметр CABAC формата : Да
Параметр ReFrames формата : 2 кадра
Идентификатор кодека : V_MPEG4/ISO/AVC
Продолжительность : 1 ч. 53 м.
Вид битрейта : Переменный
Битрейт : 18,9 Мбит/сек
Ширина : 1920 пикселей
Высота : 1080 пикселей
Соотношение сторон : 16:9
Частота кадров : 23,976 кадра/сек
Цветовое пространство : YUV
Субдискретизация насыщенности : 4:2:0
Битовая глубина : 8 бит
Тип развёртки : Прогрессивная
Бит/(Пиксели*Кадры) : 0.381
Размер потока : 15,0 Гбайт (87%)
Язык : English
Default : Да
Forced : Да

Аудио #1
Идентификатор : 2
Формат : DTS
Формат/Информация : Digital Theater Systems
Идентификатор кодека : A_DTS
Продолжительность : 1 ч. 53 м.
Вид битрейта : Постоянный
Битрейт : 755 Кбит/сек
Каналы : 6 каналов
Расположение каналов : Front: L C R, Side: L R, LFE
Частота : 48,0 КГц
Битовая глубина : 24 бит
Метод сжатия : С потерями
Размер потока : 614 Мбайт (3%)
Язык : Russian
Default : Да
Forced : Да

Аудио #2
Идентификатор : 3
Формат : DTS
Формат/Информация : Digital Theater Systems
Профиль формата : MA / Core
Идентификатор кодека : A_DTS
Продолжительность : 1 ч. 53 м.
Вид битрейта : Переменный
Битрейт : 1561 Кбит/сек / 1510 Кбит/сек
Каналы : 6 каналов
Расположение каналов : Front: L C R, Side: L R, LFE
Частота : 48,0 КГц
Битовая глубина : 16 бит
Метод сжатия : Без потерь / Lossy
Язык : English
Default : Нет
Forced : Нет

Текст #1
Идентификатор : 4
Формат : UTF-8
Идентификатор кодека : S_TEXT/UTF8
Идентификатор кодека/Информация : UTF-8 Plain Text
Заголовок : Full
Язык : English
Default : Нет
Forced : Нет

Текст #2
Идентификатор : 5
Формат : UTF-8
Идентификатор кодека : S_TEXT/UTF8
Идентификатор кодека/Информация : UTF-8 Plain Text
Заголовок : Full SDH
Язык : English
Default : Нет
Forced : Нет

Меню
00:00:00.000 : en:
00:11:11.962 : en:
00:19:44.308 : en
f2c99697241d091281bd7cb3e33bc25deb6a348aКрасные огни / Red Lights (Родриго Кортес, Ужасы, триллер, драма, 2012) [BD-Remux 1080p, Дубляж, Оригинал (английский), Sub] Красные огни / Red Lights (Родриго Кортес, Ужасы, триллер, драма, 2012) [BD-Remux 1080p, Дубляж, Оригинал (английский), Sub] " />

Аплоадер: Админ, дата: 21-09-2012, 15:59, торрент скачан: 359 раз

Понравилась раздача? Посмотрите эти:
  • 21 и больше / 21 & Over (Джон Лукас, Скотт Мур, Комедия, 2013) [BD-Remux 10 ...
  • Поймай толстуху, если сможешь [Театральная версия] / Identity Thief [Theatr ...
  • G.I. Joe: Бросок кобры 2 [Театральная версия] / G.I. Joe: Retaliation [Thea ...
  • Падение Олимпа / Olympus Has Fallen (Антуан Фукуа, Боевик, триллер, 2013) [ ...
  • Красные огни / Red Lights (Родриго Кортес, Ужасы, триллер, драма, 2012) [BD ...
  • Красные огни / Red Lights (Родриго Кортес, Ужасы, триллер, драма, 2012) [BD ...
  • Защитник / Safe (Боаз Якин, Боевик, криминал, 2012) [BD-Remux 1080p [USA Tr ...
  • Диктатор / The Dictator (Ларри Чарльз, Комедия, 2012) [BD-Remux 1080p, Дубл ...
  • Счастливчик / The Lucky One (Скотт Хикс, Драма, мелодрама, 2012) [BD-Remux ...
  • Чего ждать, когда ждешь ребенка / What to Expect When Youre Expecting (Кирк ...
  • Средь бела дня / The Cold Light of Day (Мабрук Эль Мекри, Боевик, триллер, ...
  • Красные огни / Red Lights (Родриго Кортес, Ужасы, триллер, драма, 2012) [BD ...
  • Красные огни / Red Lights (Родриго Кортес, Ужасы, триллер, драма, 2012) [BD ...
  • Белоснежка и охотник [Расширенная версия] / Snow White and the Huntsman [U ...
  • Красные огни / Red Lights (Родриго Кортес, Триллер, драма, детектив, 2012) ...
  • Красные огни / Red Lights (Родриго Кортес, Ужасы, триллер, драма, 2012) [Bl ...
  • Ищу друга на конец света / Seeking a Friend for the End of the World (Лорен ...
  • Супер Майк / Magic Mike (Стивен Содерберг, Драма, комедия, 2012) [BD-Remux ...
  • Красные огни / Red Lights (Родриго Кортес, триллер, драма, детектив, 2012) ...
  • [Phone, iPod] Красные Огни / Red Lights (Родриго Кортес, триллер, драма, де ...
  • Красные огни / Red Lights (Родриго Кортес, Ужасы, триллер, драма, 2012) [HD ...
  • Красные огни / Red Lights (Родриго Кортес, Ужасы, Триллер, Драма, 2012) [48 ...
  • Красные огни / Red Lights (Родриго Кортес, Ужасы, триллер, драма, 2012) [HD ...
  • Красные огни / Red Lights (Родриго Кортес, Ужасы, Триллер, Драма, 2012) [32 ...
  • Красные огни / Red Lights (Родриго Кортес, Ужасы, триллер, драма, 2012) [BD ...
  • Информация
    Посетители, находящиеся в группе Гости, не могут оставлять комментарии к данной публикации.