вход на сайт

Имя пользователя :
Пароль :

Восстановление пароля Регистрация
Красные огни / Red Lights (Родриго Кортес, Ужасы, триллер, драма, 2012) [BDRip 1080p, Дубляж, Оригинал (английский), Sub]
Рейтинг:
(голосов: 1)



[img]{THEME}/images/logopost.png[/img]



Красные Огни / Red Lights
«Готов ли ты поверить в это?»


Год выпуска: 2012
Страна: Испания, США
Производство: Antena 3 Films, Cindy Cowan Entertainment, Nostromo Pictures
Жанр: Ужасы, триллер, драма

Режиссёр: Родриго Кортес
В ролях: Роберт Де Ниро, Сигурни Уивер, Киллиан Мёрфи, Элизабет Олсен, Тоби Джонс, Джоэли Ричардсон, Крэйг Робертс, Берн Горман, Карен Шенас-Дэвид, Жан Корнет

Перевод: Дубляж, Оригинал (английский)
Субтитры: English [Full, SDH]

Описание: Парапсихолог Маргарэт Мэтисон изучает паранормальные явления и уже стоит на пороге потрясающих открытий. В своих исследованиях она обращается за помощью к знаменитому когда-то экстрасенсу, который соглашается вернуться к своему занятию спустя 30 лет, не подозревая, чем могут обернуться опасные опыты с неизвестным…
Качество: BDRip 1080p [HiDt] | Сэмпл
Продолжительность:01:53:51 час.


Формат: MKV
Видео кодек: x264
Аудио кодек: DTS, AC3
Видео: 1920x816 (2,35:1), 23,976 fps, x264 ~9 357 kbps avg, 0.249 bit/pixel
Аудио#1: 48 kHz, DTS, 3/2 (L,C,R,l,r) + LFE ch, ~1510.00 kbps avg- (Дубляж)
Аудио#2: 48 kHz, AC3 Dolby Digital, 3/2 (L,C,R,l,r) + LFE ch, ~640 kbps- (Оригинал)


Дата премьеры (мир): 20 января 2012
Дата премьеры (РФ): 19 июля 2012, «Парадиз»


MediaInfo ▼ General
Unique ID : 253119120670631115903080452578129928701 (0xBE6CF82A9360602A87331E2B074EE1FD)
Complete name : Red.Lights.2012.D.BDRip.1080p.IRONCLUB.mkv
Format : Matroska
Format version : Version 2
File size : 9.15 GiB
Duration : 1h 53mn
Overall bit rate : 11.5 Mbps
Movie name : IRONCLUB
Encoded date : UTC 2012-09-20 17:24:40
Writing application : mkvmerge v4.9.1 (Ich will) сборка от Jul 11 2011 23:53:15
Writing library : libebml v1.2.1 + libmatroska v1.1.1

Video
ID : 1
Format : AVC
Format/Info : Advanced Video Codec
Format profile : [email protected]
Format settings, CABAC : Yes
Format settings, ReFrames : 5 frames
Codec ID : V_MPEG4/ISO/AVC
Duration : 1h 53mn
Bit rate : 9 357 Kbps
Width : 1 920 pixels
Height : 816 pixels
Display aspect ratio : 2.35:1
Frame rate : 23.976 fps
Color space : YUV
Chroma subsampling : 4:2:0
Bit depth : 8 bits
Scan type : Progressive
Bits/(Pixel*Frame) : 0.249
Stream size : 7.26 GiB (79%)
Title : Red.Lights.2012.1080p.BluRay.x264.AC3-HDChina
Writing library : x264 core 125 r2208 d9d2288
Encoding settings : cabac=1 / ref=5 / deblock=1:-3:-3 / analyse=0x3:0x133 / me=umh / subme=10 / psy=1 / psy_rd=1.00:0.00 / mixed_ref=1 / me_range=48 / chroma_me=1 / trellis=2 / 8x8dct=1 / cqm=0 / deadzone=21,11 / fast_pskip=1 / chroma_qp_offset=-2 / threads=12 / lookahead_threads=2 / sliced_threads=0 / nr=0 / decimate=0 / interlaced=0 / bluray_compat=0 / constrained_intra=0 / bframes=7 / b_pyramid=2 / b_adapt=2 / b_bias=0 / direct=3 / weightb=1 / open_gop=0 / weightp=2 / keyint=250 / keyint_min=23 / scenecut=40 / intra_refresh=0 / rc_lookahead=80 / rc=2pass / mbtree=1 / bitrate=9357 / ratetol=1.0 / qcomp=0.60 / qpmin=0 / qpmax=69 / qpstep=4 / cplxblur=20.0 / qblur=0.5 / vbv_maxrate=30000 / vbv_bufsize=30000 / nal_hrd=none / ip_ratio=1.50 / aq=1:1.00
Language : English
Default : Yes
Forced : No

Audio #1
ID : 2
Format : DTS
Format/Info : Digital Theater Systems
Codec ID : A_DTS
Duration : 1h 53mn
Bit rate mode : Constant
Bit rate : 1 510 Kbps
Channel(s) : 6 channels
Channel positions : Front: L C R, Side: L R, LFE
Sampling rate : 48.0 KHz
Bit depth : 24 bits
Compression mode : Lossy
Stream size : 1.20 GiB (13%)
Title : DUB R5
Language : Russian
Default : Yes
Forced : Yes

Audio #2
ID : 3
Format : AC-3
Format/Info : Audio Coding 3
Mode extension : CM (complete main)
Format settings, Endianness : Big
Codec ID : A_AC3
Duration : 1h 53mn
Bit rate mode : Constant
Bit rate : 640 Kbps
Channel(s) : 6 channels
Channel positions : Front: L C R, Side: L R, LFE
Sampling rate : 48.0 KHz
Bit depth : 16 bits
Compression mode : Lossy
Stream size : 521 MiB (6%)
Title : Original
Lan
95abc6c9b185dee6e1fc08acaeadea2f38994c13Красные огни / Red Lights (Родриго Кортес, Ужасы, триллер, драма, 2012) [BDRip 1080p, Дубляж, Оригинал (английский), Sub] Красные огни / Red Lights (Родриго Кортес, Ужасы, триллер, драма, 2012) [BDRip 1080p, Дубляж, Оригинал (английский), Sub] " />

Аплоадер: Админ, дата: 21-09-2012, 00:48, торрент скачан: 359 раз

Понравилась раздача? Посмотрите эти:
  • Красные огни / Red Lights (Родриго Кортес, Ужасы, триллер, драма, 2012) [BD ...
  • Красные огни / Red Lights (Родриго Кортес, Ужасы, триллер, драма, 2012) [BD ...
  • Красные огни / Red Lights (Родриго Кортес, триллер, драма, детектив, 2012) ...
  • Патруль / End of Watch (Дэвид Эйр, Триллер, драма, криминал, 2012) [BDRip-A ...
  • Хижина в лесу / The Cabin in the Woods (Дрю Годдард, Ужасы, фантастика, три ...
  • Красные огни / Red Lights (Родриго Кортес, Ужасы, триллер, драма, 2012) [BD ...
  • Красные огни / Red Lights (Родриго Кортес, Ужасы, триллер, драма, 2012) [BD ...
  • Красные огни / Red Lights (Родриго Кортес, Ужасы, триллер, драма, 2012) [Bl ...
  • Супер Майк / Magic Mike (Стивен Содерберг, Драма, комедия, 2012) [BDRip 108 ...
  • Цунами 3D / Bait (Кимбл Рендалл, Ужасы, боевик, триллер, 2011) [BDRip 720p ...
  • На Дороге / On The Road (Уолтер Саллес, Драма, приключения, 2012) [BDRip 10 ...
  • Красные огни / Red Lights (Родриго Кортес, триллер, драма, детектив, 2012) ...
  • Явление / The Apparition (Тодд Линкольн, Ужасы, триллер, 2012) [BDRip 720p, ...
  • Эволюция Борна / The Bourne Legacy (Тони Гилрой, Боевик, триллер, детектив, ...
  • [Phone, iPod] Красные Огни / Red Lights (Родриго Кортес, триллер, драма, де ...
  • Красные огни / Red Lights (Родриго Кортес, Ужасы, триллер, драма, 2012) [HD ...
  • Красные огни / Red Lights (Родриго Кортес, Ужасы, Триллер, Драма, 2012) [48 ...
  • Красные огни / Red Lights (Родриго Кортес, Ужасы, триллер, драма, 2012) [HD ...
  • Красные огни / Red Lights (Родриго Кортес, Ужасы, Триллер, Драма, 2012) [32 ...
  • Красные огни / Red Lights (Родриго Кортес, Ужасы, триллер, драма, 2012) [BD ...
  • Информация
    Посетители, находящиеся в группе Гости, не могут оставлять комментарии к данной публикации.