вход на сайт

Имя пользователя :
Пароль :

Восстановление пароля Регистрация
Средь бела дня / The Cold Light of Day (Мабрук Эль Мекри, Боевик, триллер, 2011) [BD-Remux 1080p, Дубляж, Оригинал (английский), Sub]
Рейтинг:
(голосов: 1)



[img]{THEME}/images/logopost.png[/img]



Средь бела дня / The Cold Light of Day
«Будь осторожен даже с теми, кому доверяешь»


Год выпуска: 2011
Страна: США, Испания
Производство: Summit Entertainment
Жанр: Боевик, триллер

Режиссёр: Мабрук Эль Мекри
В ролях: Генри Кавилл, Сигурни Уивер, Брюс Уиллис, Вероника Эчеги, Джозеф Моул, Кэролайн Гудолл, Рафи Гаврон, Эмма Хэмилтон, Майкл Бадд, Рошди Зем

Перевод: Дубляж, Оригинал (английский)
Субтитры: Русские, английские

Описание: Испания, море, яхта — отпуск с поднадоевшей молодому Уиллу Шоу компанией родственников… Никто не мог предположить, что уже через несколько часов палуба яхты обагрится кровью, а члены семьи Шоу станут заложниками в руках неизвестных. В поисках родных Уилл невольно узнает о государственном заговоре и раскрывает тайны своего отца. У парня всего несколько часов, чтобы спасти семью и страну от гибели.Качество: BD-Remux 1080p | Сэмпл
Продолжительность: 01:33:33 час.


Формат: MKV
Видео кодек: x264
Аудио кодек: AC3, DTS-HD Master Audio
Видео: 1920x1080 (16:9), 23.976 fps, x264 ~34,4 mb/s, 0.691 bit/pixel
Аудио#1: 48 kHz, AC3 Dolby Digital, 3/2 (L,C,R,l,r) + LFE ch, ~384 kbps - (Дубляж)
Аудио#2: DTS-HD Master Audio3940 kbps 5.1 / 48 kHz / 3940 kbps / 24-bit (DTS Core: 5.1 / 48 kHz / 1509 kbps / 24-bit / DN -12dB) - (Оригинал)

Дата премьеры (мир): 4 апреля 2012
Дата премьеры (РФ): 23 августа 2012, «Парадиз»

MediaInfo ▼Общее
Уникальный идентификатор : 186430477762592994424506314701041638153 (0x8C4134372D674708BEB9831583051B09)
Полное имя : N:/DATASred.bela.dnja.2012.MPEG-4-AVC.BluRay-Remux(1080p).mkv
Формат : Matroska
Версия формата : Version 2
Размер файла : 24,2 Гбайт
Продолжительность : 1 ч. 33 м.
Режим общего битрейта : Переменный
Общий поток : 37,1 Мбит/сек
Название фильма : --SCHUMAHER--
Дата кодирования : UTC 2012-09-20 10:08:06
Программа кодирования : mkvmerge v5.8.0 (No Sleep / Pillow) built on Sep 2 2012 15:37:04
Библиотека кодирования : libebml v1.2.3 + libmatroska v1.3.0

Видео
Идентификатор : 1
Формат : AVC
Формат/Информация : Advanced Video Codec
Профиль формата : [email protected]
Параметр CABAC формата : Да
Параметр ReFrames формата : 2 кадра
Идентификатор кодека : V_MPEG4/ISO/AVC
Продолжительность : 1 ч. 33 м.
Вид битрейта : Переменный
Битрейт : 34,4 Мбит/сек
Ширина : 1920 пикселей
Высота : 1080 пикселей
Соотношение сторон : 16:9
Частота кадров : 24,000 кадра/сек
Цветовое пространство : YUV
Субдискретизация насыщенности : 4:2:0
Битовая глубина : 8 бит
Тип развёртки : Прогрессивная
Бит/(Пиксели*Кадры) : 0.691
Размер потока : 22,5 Гбайт (93%)
Язык : English
Default : Да
Forced : Да

Аудио #1
Идентификатор : 2
Формат : AC-3
Формат/Информация : Audio Coding 3
Расширение режима : CM (complete main)
Параметр Endianness формата : Big
Идентификатор кодека : A_AC3
Продолжительность : 1 ч. 33 м.
Вид битрейта : Постоянный
Битрейт : 384 Кбит/сек
Каналы : 6 каналов
Расположение каналов : Front: L C R, Side: L R, LFE
Частота : 48,0 КГц
Битовая глубина : 16 бит
Метод сжатия : С потерями
Размер потока : 257 Мбайт (1%)
Язык : Russian
Default : Да
Forced : Да

Аудио #2
Идентификатор : 3
Формат : DTS
Формат/Информация : Digital Theater Systems
Профиль формата : MA / Core
Идентификатор кодека : A_DTS
Продолжительность : 1 ч. 33 м.
Вид битрейта : Переменный
Битрейт : 1576 Кбит/сек / 1510 Кбит/сек
Каналы : 6 каналов
Расположение каналов : Front: L C R, Side: L R, LFE
Частота : 48,0 КГц
Битовая глубина : 24 бит
Метод сжатия : Без потерь / Lossy
Язык : English
Default : Нет
Forced : Нет

Текст #1
Идентификатор : 4
Формат : UTF-8
Идентификатор кодека : S_TEXT/UTF8
Идентификатор кодека/Информация : UTF-8 Plain Text
Язык : Russian
Default : Нет
Forced : Нет

Текст #2
Идентификатор : 5
Формат : UTF-8
Идентификатор кодека : S_TEXT/UTF8
Идентификатор кодека/Информация : UTF-8 Plain Text
Заголовок : Full
Язык : English
Default : Нет
Forced : Нет

Текст #3
Идентификатор : 6
Формат : U
58505ffe82b71d498ebd6bcc7ec620a6885f0bc4Средь бела дня / The Cold Light of Day (Мабрук Эль Мекри, Боевик, триллер, 2011) [BD-Remux 1080p, Дубляж, Оригинал (английский), Sub] Средь бела дня / The Cold Light of Day (Мабрук Эль Мекри, Боевик, триллер, 2011) [BD-Remux 1080p, Дубляж, Оригинал (английский), Sub] " />

Аплоадер: Админ, дата: 20-09-2012, 18:27, торрент скачан: 359 раз

Понравилась раздача? Посмотрите эти:
  • 21 и больше / 21 & Over (Джон Лукас, Скотт Мур, Комедия, 2013) [BD-Remux 10 ...
  • Поймай толстуху, если сможешь [Театральная версия] / Identity Thief [Theatr ...
  • G.I. Joe: Бросок кобры 2 [Театральная версия] / G.I. Joe: Retaliation [Thea ...
  • Падение Олимпа / Olympus Has Fallen (Антуан Фукуа, Боевик, триллер, 2013) [ ...
  • Средь бела дня / The Cold Light of Day (Мабрук Эль Мекри, Боевик, триллер, ...
  • Средь бела дня / The Cold Light of Day (Мабрук Эль Мекри, Боевик, триллер, ...
  • Средь бела дня / The Cold Light of Day (Мабрук Эль Мекри, Боевик, триллер, ...
  • Другой мир: Пробуждение / Underworld: Awakening (Манс Марлинд, Бьёрн Стейн, ...
  • Защитник / Safe (Боаз Якин, Боевик, криминал, 2012) [BD-Remux 1080p [USA Tr ...
  • Диктатор / The Dictator (Ларри Чарльз, Комедия, 2012) [BD-Remux 1080p, Дубл ...
  • Счастливчик / The Lucky One (Скотт Хикс, Драма, мелодрама, 2012) [BD-Remux ...
  • Чего ждать, когда ждешь ребенка / What to Expect When Youre Expecting (Кирк ...
  • В ритме сердца / Sur le rythme (Шарль Оливье-Мишо, Мелодрама, 2011) [BD-Rem ...
  • Средь бела дня / The Cold Light of Day (Мабрук Эль Мекри, Боевик, триллер, ...
  • Красные огни / Red Lights (Родриго Кортес, Ужасы, триллер, драма, 2012) [BD ...
  • Белоснежка и охотник [Расширенная версия] / Snow White and the Huntsman [U ...
  • Ищу друга на конец света / Seeking a Friend for the End of the World (Лорен ...
  • Супер Майк / Magic Mike (Стивен Содерберг, Драма, комедия, 2012) [BD-Remux ...
  • Папа-Досвидос [Театральная версия] / Thats My Boy [Theatrical Cut] (Шон Анд ...
  • Эволюция Борна / The Bourne Legacy (Тони Гилрой, боевик, триллер, детектив, ...
  • [Phone, iPod] Средь бела дня / The Cold Light of Day (Мабрук Эль Мекри, бое ...
  • Средь бела дня / The Cold Light of Day (Мабрук Эль Мекри, Боевик, триллер, ...
  • Средь бела дня / The Cold Light of Day (Мабрук Эль Мекри, Боевик, триллер, ...
  • Средь бела дня / The Cold Light of Day (Мабрук Эль Мекри, Боевик, триллер, ...
  • Средь бела дня / The Cold Light of Day (Мабрук Эль Мекри, боевик, триллер, ...
  • Информация
    Посетители, находящиеся в группе Гости, не могут оставлять комментарии к данной публикации.