вход на сайт

Имя пользователя :
Пароль :

Восстановление пароля Регистрация
В ритме сердца / Sur le rythme (Шарль Оливье-Мишо, Мелодрама, 2011) [BD-Remux 1080p, Дубляж, Оригинал, German]
Рейтинг:
(голосов: 1)



[img]{THEME}/images/logopost.png[/img]



В ритме сердца / Sur le rythme
«Грязные танцы нового поколения»


Год выпуска: 2011
Страна: Канада
Производство: Gaèa Films
Жанр: Мелодрама

Режиссёр: Шарль Оливье-Мишо
В ролях: Милен Сен-Совер, Нико Аршамбо, Френс Кастель, Марина Орсини, Пол Дусе, Алексия Гурд, Лина Росслер, Дави Бойсверт, Дэнни Амарал Де Матос

Перевод: Дубляж, Оригинал, German
Субтитры: Отсутствуют

Описание: Дельфина — студентка престижного колледжа из хорошей семьи. Марк не знает своего отца, зато хорошо знаком с законами улиц, и легко сведет с ума любую девушку. Она мечтает стать профессиональным танцором. Без него не обходится ни одна зажигательная дискотека города. Им предстоит вместе пройти кастинг и выиграть участие в мировом турне с одним из лучших танцевальных шоу! Колледж заброшен, родители — не в курсе, лучшая подруга — соперница по кастингу и влюблена в Марка, но все это не важно, потому что главное — это сделать самый лучший танец и победить!

Качество: BD-Remux 1080p
Продолжительность: 01:32:50 час.


Формат: MKV
Видео кодек: x264
Аудио кодек: AC3, DTS, DTS-HD Master Audio
Видео:1920x1080 (16:9), 24 fps, x264 ~22.8 mb/s, 0.457 bit/pixel
Аудио#1: 48 kHz, AC3 Dolby Digital, 3/2 (L,C,R,l,r) + LFE ch, ~448 kbps avg (Дубляж)
Аудио#2: 48 kHz, DTS, 3/2 (L,C,R,l,r) + LFE ch, ~1536.00 kbps avg (Оригинал)
Аудио#3 DTS-HD Master Audio3844 kbps 5.1 / 48 kHz / 3844 kbps / 24-bit (DTS Core: 5.1 / 48 kHz / 1509 kbps / 24-bit)(German)

Дата премьеры (мир): 12 августа 2011
Дата премьеры (РФ): 9 августа 2012, «Кинопром», «All Media»

MediaInfo ▼ Общее
Уникальный идентификатор : 232503416950264678314230411668036887775 (0xAEEA877F65D7EF2AB868C378DDD9A4DF)
Полное имя : N:/DATAV.ritme.serdca.2011.MPEG-4-AVC.BluRay-Remux(1080p).mkv
Формат : Matroska
Версия формата : Version 2
Размер файла : 17,4 Гбайт
Продолжительность : 1 ч. 32 м.
Режим общего битрейта : Переменный
Общий поток : 26,8 Мбит/сек
Название фильма : --SCHUMAHER--
Дата кодирования : UTC 2012-09-12 10:11:09
Программа кодирования : mkvmerge v5.8.0 (No Sleep / Pillow) built on Sep 2 2012 15:37:04
Библиотека кодирования : libebml v1.2.3 + libmatroska v1.3.0

Видео
Идентификатор : 1
Формат : AVC
Формат/Информация : Advanced Video Codec
Профиль формата : [email protected]
Параметр CABAC формата : Да
Параметр ReFrames формата : 3 кадра
Параметр GOP формата : M=3, N=12
Идентификатор кодека : V_MPEG4/ISO/AVC
Продолжительность : 1 ч. 32 м.
Вид битрейта : Переменный
Битрейт : 22,8 Мбит/сек
Максимальный битрейт : 35,0 Мбит/сек
Ширина : 1920 пикселей
Высота : 1080 пикселей
Соотношение сторон : 16:9
Частота кадров : 24,000 кадра/сек
Стандарт вещания : NTSC
Цветовое пространство : YUV
Субдискретизация насыщенности : 4:2:0
Битовая глубина : 8 бит
Тип развёртки : Прогрессивная
Бит/(Пиксели*Кадры) : 0.457
Размер потока : 14,8 Гбайт (85%)
Язык : French
Default : Да
Forced : Да
Основные цвета : BT.709-5, BT.1361, IEC 61966-2-4, SMPTE RP177
Характеристики трансфера : BT.709-5, BT.1361
Коэффициенты матрицы : BT.709-5, BT.1361, IEC 61966-2-4 709, SMPTE RP177

Аудио #1
Идентификатор : 2
Формат : AC-3
Формат/Информация : Audio Coding 3
Расширение режима : CM (complete main)
Параметр Endianness формата : Big
Идентификатор кодека : A_AC3
Продолжительность : 1 ч. 32 м.
Вид битрейта : Постоянный
Битрейт : 448 Кбит/сек
Каналы : 6 каналов
Расположение каналов : Front: L C R, Side: L R, LFE
Частота : 48,0 КГц
Битовая глубина : 16 бит
Метод сжатия : С потерями
Размер потока : 297 Мбайт (2%)
Язык : Russian
Default : Да
Forced : Да

Аудио #2
Идентификатор : 3
Формат : DTS
Формат/Информация : Digital Theater Systems
Идентификатор кодека : A_DTS
Продолжительность : 1 ч. 32 м.
Вид битрейта : Постоянный
Битрейт : 1510 Кбит/сек
Каналы : 6 каналов
Расположение каналов : Front: L C R, Side: L R, LFE
Частота : 48,0 КГц
Битовая глубина : 24 бит
Мет
720418154620fc3ead865dba707a071a5acd4271В ритме сердца / Sur le rythme (Шарль Оливье-Мишо, Мелодрама, 2011) [BD-Remux 1080p, Дубляж, Оригинал, German] В ритме сердца / Sur le rythme (Шарль Оливье-Мишо, Мелодрама, 2011) [BD-Remux 1080p, Дубляж, Оригинал, German] " />

Аплоадер: Админ, дата: 15-09-2012, 14:54, торрент скачан: 359 раз

Понравилась раздача? Посмотрите эти:
  • 21 и больше / 21 & Over (Джон Лукас, Скотт Мур, Комедия, 2013) [BD-Remux 10 ...
  • Поймай толстуху, если сможешь [Театральная версия] / Identity Thief [Theatr ...
  • G.I. Joe: Бросок кобры 2 [Театральная версия] / G.I. Joe: Retaliation [Thea ...
  • Падение Олимпа / Olympus Has Fallen (Антуан Фукуа, Боевик, триллер, 2013) [ ...
  • В ритме сердца / Sur le rythme (Шарль Оливье-Мишо, Мелодрама, 2011) [HDRip, ...
  • В ритме сердца / Sur le rythme (Шарль Оливье-Мишо, Мелодрама, 2011) [BDRip- ...
  • В ритме сердца / Sur le rythme (Шарль Оливье-Мишо, Мелодрама, 2011) [BDRip- ...
  • Транзит / Transit (Антонио Негрет, боевик, триллер, драма, криминал, 2011) ...
  • Защитник / Safe (Боаз Якин, Боевик, криминал, 2012) [BD-Remux 1080p [USA Tr ...
  • Диктатор / The Dictator (Ларри Чарльз, Комедия, 2012) [BD-Remux 1080p, Дубл ...
  • Счастливчик / The Lucky One (Скотт Хикс, Драма, мелодрама, 2012) [BD-Remux ...
  • Чего ждать, когда ждешь ребенка / What to Expect When Youre Expecting (Кирк ...
  • В ритме сердца / Sur le rythme (Шарль Оливье-Мишо, Мелодрама, 2011) [BDRip ...
  • Средь бела дня / The Cold Light of Day (Мабрук Эль Мекри, Боевик, триллер, ...
  • Красные огни / Red Lights (Родриго Кортес, Ужасы, триллер, драма, 2012) [BD ...
  • Белоснежка и охотник [Расширенная версия] / Snow White and the Huntsman [U ...
  • Ищу друга на конец света / Seeking a Friend for the End of the World (Лорен ...
  • Супер Майк / Magic Mike (Стивен Содерберг, Драма, комедия, 2012) [BD-Remux ...
  • Папа-Досвидос [Театральная версия] / Thats My Boy [Theatrical Cut] (Шон Анд ...
  • В ритме сердца / Sur le rythme (Шарль Оливье-Мишо, мелодрама, 2011) [HDRip, ...
  • Информация
    Посетители, находящиеся в группе Гости, не могут оставлять комментарии к данной публикации.