вход на сайт

Имя пользователя :
Пароль :

Восстановление пароля Регистрация
Цветы войны / Jin líng shí san chai (Чжан Имоу, драма, военный, история, 2011) [BDRip 720p, Дубляж, Оригинал, Sub]
Рейтинг:
(голосов: 1)



[img]{THEME}/images/logopost.png[/img]



Цветы войны / Jin líng shí san chai

Год выпуска: 2011
Страна: КитайГонконг
Производство:New Pictures
Жанр: Драма, военный, история

Режиссёр: Чжан Имоу
В ролях: Кристиан Бэйл, Ни Ни, Синю Чжан, Тяньюань Хуанг, Хань Ситин, Дуду Чжан, Тун Давэй, Ацуро Ватабэ, Цао Кэфань, Юань Яньчунци

Перевод: Дубляж, Оригинал
Примечание: Не хватает около 20 секунд перевода!
Субтитры: Russian, English

Описание: Фильм основан на реальных событиях. Действия разворачиваются в период японо-китайской войны. Главный герой, американский гробовщик Джон, направляется в Католическую церковь в Нанкине, чтобы подготовить священника к похоронам. По прибытию он оказывается единственным мужчиной среди учениц монастыря и проституток из соседнего борделя в эпицентре военных действий. Оказавшись в таком положении, он выдаёт себя за священника и пытается спасти обе группы от ужасов вторжения японской армии…

Качество: BDRip 720p [EbP]
Продолжительность:02:25:59 час.


Формат: MKV
Видео кодек: x264
Аудио кодек: AC3
Видео: 1280x544(2.35:1), 24.000 fps, x264 ~8 280 kbps avg, 0.495 bit/pixel
Аудио#1: 48 kHz, AC3 Dolby Digital, 3/2 (L,C,R,l,r) + LFE ch, ~384 kbps (Дубляж)
Аудио#2: 48 kHz, AC3 Dolby Digital, 3/2 (L,C,R,l,r) + LFE ch, ~640 kbps (Оригинал)

Дата премьеры (мир): 16 декабря 2011
Дата премьеры (РФ): 2 августа 2012, «Люксор»

MediaInfo ▼General
Unique ID : 233687376260938639688191425325192106463 (0xAFCE8D32D09914FEBEED7A09C536D1DF)
Complete name : Cvety.vojny.2011.D.BDRip.720p.IRONCLUB.mkv
Format : Matroska
Format version : Version 2
File size : 9.68 GiB
Duration : 2h 25mn
Overall bit rate : 9 493 Kbps
Movie name : IRONCLUB
Encoded date : UTC 2012-09-06 20:21:45
Writing application : mkvmerge v4.9.1 (Ich will) сборка от Jul 11 2011 23:53:15
Writing library : libebml v1.2.1 + libmatroska v1.1.1

Video
ID : 1
Format : AVC
Format/Info : Advanced Video Codec
Format profile : [email protected]
Format settings, CABAC : Yes
Format settings, ReFrames : 10 frames
Codec ID : V_MPEG4/ISO/AVC
Duration : 2h 25mn
Bit rate : 8 280 Kbps
Width : 1 280 pixels
Height : 544 pixels
Display aspect ratio : 2.35:1
Frame rate : 24.000 fps
Color space : YUV
Chroma subsampling : 4:2:0
Bit depth : 8 bits
Scan type : Progressive
Bits/(Pixel*Frame) : 0.495
Stream size : 8.44 GiB (87%)
Title : The.Flowers.Of.War.2011.720p.BluRay.DD5.1.x264-EbP
Writing library : x264 core 124 r2197 69a0443
Encoding settings : cabac=1 / ref=10 / deblock=1:-3:-3 / analyse=0x3:0x113 / me=tesa / subme=11 / psy=1 / psy_rd=1.00:0.00 / mixed_ref=1 / me_range=16 / chroma_me=1 / trellis=2 / 8x8dct=1 / cqm=0 / deadzone=21,11 / fast_pskip=0 / chroma_qp_offset=-2 / threads=12 / sliced_threads=0 / nr=0 / decimate=0 / interlaced=0 / bluray_compat=0 / constrained_intra=0 / bframes=7 / b_pyramid=2 / b_adapt=2 / b_bias=0 / direct=3 / weightb=1 / open_gop=0 / weightp=2 / keyint=250 / keyint_min=24 / scenecut=40 / intra_refresh=0 / rc=crf / mbtree=0 / crf=15.8 / qcomp=0.65 / qpmin=0 / qpmax=69 / qpstep=4 / ip_ratio=1.40 / pb_ratio=1.30 / aq=1:0.80
Language : English
Default : Yes
Forced : Yes

Audio #1
ID : 2
Format : AC-3
Format/Info : Audio Coding 3
Mode extension : CM (complete main)
Format settings, Endianness : Big
Codec ID : A_AC3
Duration : 2h 25mn
Bit rate mode : Constant
Bit rate : 384 Kbps
Channel(s) : 6 channels
Channel positions : Front: L C R, Side: L R, LFE
Sampling rate : 48.0 KHz
Bit depth : 16 bits
Compression mode : Lossy
Stream size : 401 MiB (4%)
Title : DD 5.1 @ 384 kbps - Dub, R5
Language : Russian
Default : Yes
Forced : Yes

Audio #2
ID : 3
Format : AC-3
Format/Info : Audio Coding 3
Mode extension : CM (complete main)
Format settings, Endianness : Big
Codec ID : A_AC3
Duration : 2h 25mn
Bit rate mode : Constant
Bit rate : 640 Kbps
Channel(s) : 6 channels
Channel positions : Front: L C R, Side: L R, LFE
Sampling rate : 48.0 KHz
Bit depth : 16 bits
Compression mode : Lossy
S
63f6e4ae92d2a8ded8c1f54634154156a1f0af47Цветы войны / Jin líng shí san chai (Чжан Имоу, драма, военный, история, 2011) [BDRip 720p, Дубляж, Оригинал, Sub] Цветы войны / Jin líng shí san chai (Чжан Имоу, драма, военный, история, 2011) [BDRip 720p, Дубляж, Оригинал, Sub] " />

Аплоадер: Админ, дата: 7-09-2012, 04:21, торрент скачан: 359 раз

Понравилась раздача? Посмотрите эти:
  • Цветы войны / The Flowers of War / Jin lнng shн san chai (Чжан Имоу, драма, ...
  • Падение последней империи: 1911 / Xinhai geming: 1911 (Чжан Ли, Джеки Чан, ...
  • Весенние надежды / Hope Springs (Дэвид Фрэнкел, Драма, мелодрама, комедия, ...
  • Толстяк на ринге / Here Comes the Boom (Фрэнк Корачи, Боевик, комедия, 201 ...
  • Черный дрозд / Deadfall (Штефан Руцовицки, Триллер, драма, криминал, 2012) ...
  • Цветы войны / Jin líng shí san chai (Чжан Имоу, драма, военный, история, 20 ...
  • Цветы войны / Jin líng shí san chai / The Flowers of War (Чжан Имоу / Zhang ...
  • Цветы войны / The Flowers of War / Jin líng shí san chai (Чжан Имоу, драма, ...
  • «Весёлые» каникулы / Get the Gringo (Адриан Грюнберг, Боевик, комедия, 2012 ...
  • Ворон / The Raven (Джеймс МакТиг, Триллер, детектив, 2012) [BDRip 720p, Дуб ...
  • Пираньи 3DD / Piranha 3DD (Джон Гулажер, ужасы, триллер, комедия, 2012) [BD ...
  • Цветы войны / Jin líng shí san chai (Чжан Имоу, драма, военный, история, 20 ...
  • Цветы войны / Jin ling shi san chai (Чжан Имоу, Драма, военный, история, 20 ...
  • Супер Майк / Magic Mike (Стивен Содерберг, Драма, комедия, 2012) [BDRip 720 ...
  • Цунами 3D / Bait (Кимбл Рендалл, Ужасы, боевик, триллер, 2011) [BDRip 720p ...
  • На Дороге / On The Road (Уолтер Саллес, Драма, приключения, 2012) [BDRip 72 ...
  • Цветы войны / Jin líng shí san chai (Чжан Имоу, драма, военный, история, 20 ...
  • Цветы войны / Jin líng shí san chai (Чжан Имоу, драма, военный, история, 20 ...
  • Цветы войны / Jin líng shí san chai (Чжан Имоу, драма, военный, история, 20 ...
  • Цветы войны / Jin líng shí san chai (Чжан Имоу, драма, военный, история, 20 ...
  • Информация
    Посетители, находящиеся в группе Гости, не могут оставлять комментарии к данной публикации.