вход на сайт

Имя пользователя :
Пароль :

Восстановление пароля Регистрация
Золушка: Полный вперед! / Cendrillon au Far West (Паскаль Эрольд, Мультфильм, 2012) [BDRip 720p, Дубляж]
Рейтинг:
(голосов: 1)



[img]{THEME}/images/logopost.png[/img]



Золушка: Полный вперед! / Cendrillon au Far West


Год выпуска: 2012
Страна: Франция
Производство: Centre National de la Cinématographie (CNC), Herold and Family, Nexus Factory
Жанр: Мультфильм

Режиссёр: Паскаль Эрольд
В ролях: Александра Лами, Иоланда Моро, Изабель Нанти, Антуан де Кон, Мишель Бужена

Перевод: Дубляж
Субтитры: Отсутствуют

Описание: Представьте себе, что всем известная история Золушки, превращается в анимационную комедию, да еще и снятую в 3D! Вам интересно? А если представить, что Золушка живет в волшебной стране, по которой путешествует русский принц со своей тётей? Еще интереснее? Вас ждут невероятные приключения, похищения и погони, большая дружба, настоящая любовь и… выбитый зуб! И никто, ни злая мачеха со своими дочками, ни разбойники-пираты не смогут помешать Золушке и Принцу обрести свое счастье!

Релиз от:

Качество: BDRip 720p
Продолжительность: 01:21:06 час.


Формат: MKV
Видео кодек: x264
Аудио кодек: AC3
Видео: 1280x720 (16:9), 23.976 fps, x264 ~4 500 kbps avg, 0.204 bit/pixel
Аудио: 48 kHz, AC3 Dolby Digital, 3/2 (L,C,R,l,r) + LFE ch, ~640 kbps

Дата премьеры (мир): 1 июня 2012
Дата премьеры (РФ): 2 августа 2012, «Каскад»

MediaInfo ▼Complete name : Zolushka.Polnyj.vpered.2012.D.BDRip.720p.IRONCLUB.mkv
Format : Matroska
Format version : Version 2
File size : 2.91 GiB
Duration : 1h 21mn
Overall bit rate : 5 134 Kbps
Movie name : IRONCLUB
Encoded date : UTC 2012-09-06 08:18:56
Writing application : mkvmerge v4.9.1 (Ich will) сборка от Jul 11 2011 23:53:15
Writing library : libebml v1.2.1 + libmatroska v1.1.1

Video
ID : 1
Format : AVC
Format/Info : Advanced Video Codec
Format profile : [email protected]
Format settings, CABAC : Yes
Format settings, ReFrames : 9 frames
Codec ID : V_MPEG4/ISO/AVC
Duration : 1h 21mn
Bit rate : 4 500 Kbps
Width : 1 280 pixels
Height : 720 pixels
Display aspect ratio : 16:9
Frame rate : 23.976 fps
Color space : YUV
Chroma subsampling : 4:2:0
Bit depth : 8 bits
Scan type : Progressive
Bits/(Pixel*Frame) : 0.204
Stream size : 2.49 GiB (86%)
Title : Cendrillon au Far West 2012 720p BluRay DD5.1 x264-IRONCLUB
Writing library : x264 core 125 r2200 999b753
Encoding settings : cabac=1 / ref=9 / deblock=1:-3:-3 / analyse=0x3:0x113 / me=umh / subme=11 / psy=1 / psy_rd=0.95:0.00 / mixed_ref=1 / me_range=24 / chroma_me=1 / trellis=2 / 8x8dct=1 / cqm=0 / deadzone=21,11 / fast_pskip=0 / chroma_qp_offset=-1 / threads=12 / lookahead_threads=2 / sliced_threads=0 / nr=0 / decimate=1 / interlaced=0 / bluray_compat=0 / constrained_intra=0 / bframes=7 / b_pyramid=2 / b_adapt=2 / b_bias=0 / direct=3 / weightb=1 / open_gop=0 / weightp=2 / keyint=250 / keyint_min=23 / scenecut=40 / intra_refresh=0 / rc_lookahead=40 / rc=2pass / mbtree=0 / bitrate=4500 / ratetol=1.0 / qcomp=0.60 / qpmin=10 / qpmax=69 / qpstep=4 / cplxblur=20.0 / qblur=0.5 / vbv_maxrate=50000 / vbv_bufsize=62500 / nal_hrd=none / ip_ratio=1.40 / pb_ratio=1.30 / aq=1:1.00
Language : English
Default : Yes
Forced : Yes
Matrix coefficients : BT.709-5, BT.1361, IEC 61966-2-4 709, SMPTE RP177

Audio
ID : 2
Format : AC-3
Format/Info : Audio Coding 3
Mode extension : CM (complete main)
Format settings, Endianness : Big
Codec ID : A_AC3
Duration : 1h 21mn
Bit rate mode : Constant
Bit rate : 640 Kbps
Channel(s) : 6 channels
Channel positions : Front: L C R, Side: L R, LFE
Sampling rate : 48.0 KHz
Bit depth : 16 bits
Compression mode : Lossy
Stream size : 372 MiB (12%)
Title : DD 5.1 @ 640 kbps - Dub, BD
Language : Russian
Default : Yes
Forced : Yes

Menu
00:00:00.000 : en:00:00:00.000
00:07:06.509 : en:00:07:06.509
00:14:53.267 : en:00:14:53.267
00:21:25.200 : en:00:21:25.200
00:29:59.589 : en:00:29:59.589
00:37:09.018 : en:00:37:09.018
00:43:53.047 : en:00:43:53.047
00:52:31.106 : en:00:52:31.106
01:00:28.124 : en:01:00:28.124
01:07:26.834 : en:01:07:26.834
01:1
84353f48c20518f9e4c81d2f51996c2ca72041aaЗолушка: Полный вперед! / Cendrillon au Far West (Паскаль Эрольд, Мультфильм, 2012) [BDRip 720p, Дубляж] Золушка: Полный вперед! / Cendrillon au Far West (Паскаль Эрольд, Мультфильм, 2012) [BDRip 720p, Дубляж] " />

Аплоадер: Админ, дата: 6-09-2012, 16:09, торрент скачан: 359 раз

Понравилась раздача? Посмотрите эти:
  • Замуж на 2 дня / Un plan parfait (Паскаль Шомель, Мелодрама, комедия, прикл ...
  • Замуж на 2 дня / Un plan parfait (Паскаль Шомель, Мелодрама, комедия, прикл ...
  • Марко Макако / Marco Macaco (Жан Рабек, Мультфильм, комедия, семейный, 2012 ...
  • Двигай время! / Los ilusionautas (Эдуардо Шульдт, Мультфильм, фэнтези, прик ...
  • Золушка: Полный вперед! / Cendrillon au Far West (Паскаль Эрольд, Мультфиль ...
  • Золушка: Полный вперед! / Cendrillon au Far West (Паскаль Эрольд, Мультфиль ...
  • Джок / Jock (Дункан МакНили, мультфильм, комедия, приключения, семейный, 20 ...
  • «Весёлые» каникулы / Get the Gringo (Адриан Грюнберг, Боевик, комедия, 2012 ...
  • Пираты! Банда неудачников / The Pirates! Band of Misfits (Питер Лорд, Джефф ...
  • Три метра над уровнем неба: Я тебя хочу / Tengo ganas de ti / I Want You (Ф ...
  • Медальон / Stolen (Саймон Уэст, Боевик, триллер, 2012) [BDRip 720p, Дубляж, ...
  • Неудержимые 2 / The Expendables 2 (Саймон Уэст, боевик, триллер, 2012) [BDR ...
  • ЗЛО / V/H/S (Мэттью Беттинелли, Адам Вингард, Дэвид Брукнер, ужасы, 2012) [ ...
  • Любовь С Препятствиями / Un Bonheur Narrive Jamais Seul (Джеймс Хат, Мелодр ...
  • Патруль / End of Watch (Дэвид Эйр, Триллер, драма, криминал, 2012) [BDRip 7 ...
  • Золушка: Полный вперед! / Cendrillon au Far West (Паскаль Эрольд, Мультфиль ...
  • Золушка: Полный вперед! / Cendrillon au Far West (Паскаль Эрольд, Мультфиль ...
  • Золушка: Полный вперед! / Cendrillon au Far West (Паскаль Эрольд, Мультфиль ...
  • [3D] Золушка: Полный вперед! / Cendrillon au Far West (Паскаль Эрольд, Муль ...
  • [3D] Золушка: Полный вперед! / Cendrillon au Far West (Паскаль Эрольд, Муль ...
  • Информация
    Посетители, находящиеся в группе Гости, не могут оставлять комментарии к данной публикации.