вход на сайт

Имя пользователя :
Пароль :

Восстановление пароля Регистрация
Харакири 3D / Ichimei (Такаси Миике, Драма, 2011) [BDRip 720p, Профессиональный (многоголосый, закадровый) + Оригинал + Sub]
Рейтинг:
(голосов: 1)



[img]{THEME}/images/logopost.png[/img]



Харакири 3D / Ichimei

Год выпуска: 2011
Страна: Япония, Великобритания
Производство: Amuse Soft Entertainment K.K., Dentsu, Kodansha Ltd.
Жанр: Драма

Режиссёр: Такаси Миике
В ролях: Кодзи Якусё, Наото Такэнака Хикари Мицушима Эйта, Шиносуке Ичикава, Казуки Намиока Хирофуми Арай Мунэтака Аоки Аюму Саито, Такаси Сасано

Перевод: Профессиональный (многоголосый, закадровый) [Лицензия] +Оригинал
Субтитры: Русские

Описание: Желая достойно умереть, обедневший самурай Хаширо просит позволения совершить ритуальное самоубийство в родовой резиденции клана Ли. Старый воин Кагею, интендант поместья, пытается отговорить его и рассказывает трагическую историю о молодом ронине Мотоме, обратившемся недавно в резиденцию с той же просьбой. Ужасные подробности смерти Мотома шокируют Хаширо, но он остается тверд в своем решении и просит лишь об одном: чтобы при совершении харакири с ним были три самурая Кагею. Однако по странному совпадению все трое самураев исчезают…

КиноПоиск: рейтинг7.192 (213)
IMDB: рейтинг7.20 (1 076)

Качество: BDRip 720p
Продолжительность: 02:06:39

Формат: MKV
Видео кодек: H.264
Аудио кодек: AC3
Видео: 1280x534 (2.35:1), 23.976 fps, AVC, ~6646 kbps avg, 0.397 bit/pixel
Аудио #1: 48.0 KHz, AC-3, (L,C,R,l,r) + LFE ch, ~384 Kbps (Профессиональный (многоголосый, закадровый))
Аудио #2: 48.0 KHz, DTS, (L,C,R,l,r) + LFE ch, ~755 Kbps (Оригинал, Японский)

Сэмпл
"MediaInfo" ▼
Общее
Уникальный идентификатор : 194146168252681032631463429267263691352 (0x920F3120872BDF08B93473A7AA419A58)
Полное имя : H:HaraKiri.2011.P.BDRip.720p.mkv
Формат : Matroska
Версия формата : Version 2
Размер файла : 6,90 Гбайт
Продолжительность : 2 ч. 6 м.
Общий поток : 7797 Кбит/сек
Дата кодирования : UTC 2012-08-21 19:06:40
Программа кодирования : mkvmerge v4.9.1 (Ich will) built on Jul 11 2011 23:53:15
Библиотека кодирования : libebml v1.2.1 + libmatroska v1.1.1

Видео
Идентификатор : 1
Формат : AVC
Формат/Информация : Advanced Video Codec
Профиль формата : [email protected]
Параметр CABAC формата : Да
Параметр ReFrames формата : 12 кадров
Идентификатор кодека : V_MPEG4/ISO/AVC
Продолжительность : 2 ч. 6 м.
Битрейт : 6646 Кбит/сек
Ширина : 1280 пикселей
Высота : 534 пикселя
Соотношение сторон : 2,40:1
Соотношение сторон в оригинале : 2,40:1
Частота кадров : 23,976 кадра/сек
Цветовое пространство : YUV
Субдискретизация насыщенности : 4:2:0
Битовая глубина : 8 бит
Тип развёртки : Прогрессивная
Бит/(Пиксели*Кадры) : 0.406
Размер потока : 5,75 Гбайт (83%)
Заголовок : Hara-Kiri.Death.Of.A.Samurai.2011.720p.BluRay.x264.DTS-WiKi
Библиотека кодирования : x264 core 122 r2184 5c85e0a
Настройки программы : cabac=1 / ref=12 / deblock=1:-3:-3 / analyse=0x3:0x133 / me=umh / subme=11 / psy=1 / psy_rd=1.05:0.10 / mixed_ref=1 / me_range=48 / chroma_me=1 / trellis=2 / 8x8dct=1 / cqm=0 / deadzone=21,11 / fast_pskip=0 / chroma_qp_offset=-3 / threads=12 / sliced_threads=0 / nr=0 / decimate=1 / interlaced=0 / bluray_compat=0 / constrained_intra=0 / bframes=8 / b_pyramid=2 / b_adapt=2 / b_bias=0 / direct=3 / weightb=1 / open_gop=0 / weightp=2 / keyint=250 / keyint_min=23 / scenecut=40 / intra_refresh=0 / rc_lookahead=250 / rc=2pass / mbtree=1 / bitrate=6646 / ratetol=1.0 / qcomp=0.60 / qpmin=0 / qpmax=69 / qpstep=4 / cplxblur=20.0 / qblur=0.5 / ip_ratio=1.40 / aq=1:0.90
Язык : Japanese
Default : Да
Forced : Нет

Аудио #1
Идентификатор : 2
Формат : AC-3
Формат/Информация : Audio Coding 3
Расширение режима : CM (complete main)
Идентификатор кодека : A_AC3
Продолжительность : 2 ч. 6 м.
Вид битрейта : Постоянный
Битрейт : 384 Кбит/сек
Каналы : 6 каналов
Расположение каналов : Front: L C R, Side: L R, LFE
Частота : 48,0 КГц
Битовая глубина : 16 бит
Метод сжатия : С потерями
Размер потока : 348 Мбайт (5%)
Заголовок : MVO R5
Язык : Russian
Default : Да
Forced : Нет

Аудио #2
Идентификатор : 3
Формат : DTS
Формат/Ин
63be8e92a001312a422d6457c427dfccc92c7c7eХаракири 3D / Ichimei (Такаси Миике, Драма, 2011) [BDRip 720p, Профессиональный (многоголосый, закадровый) + Оригинал + Sub] Харакири 3D / Ichimei (Такаси Миике, Драма, 2011) [BDRip 720p, Профессиональный (многоголосый, закадровый) + Оригинал + Sub] " />

Аплоадер: Админ, дата: 3-09-2012, 21:21, торрент скачан: 359 раз

Понравилась раздача? Посмотрите эти:
  • Мэрайа Мунди и шкатулка Мидаса / The Adventurer: The Curse of the Midas Box ...
  • Больше чем мёд / More Than Honey (документальный, 2012) [BDRip 720p, Профес ...
  • Летучий отряд Скотланд-Ярда / The Sweeney (Ник Лав, Боевик, драма, криминал ...
  • Порочные игры / Stoker (Пак Чхан Ук, Триллер, драма, детектив, 2013) [BDRip ...
  • Порочные игры / Stoker (Пак Чхан Ук, Триллер, драма, детектив, 2013) [BDRip ...
  • Рикошет / Ricochet (Ник Гомез, драма, детектив, 2011) [BDRip-AVC, Профессио ...
  • Харакири / Seppuku (Масаки Кобаяси, драма 1962) [BDRip 720p, Профессиональн ...
  • Бульвар спасения / Salvation Boulevard (Джордж Рэтлифф, боевик, триллер, др ...
  • Суррогат / The Sessions (Бен Луин, Драма, 2012) [BDRip-AVC, Профессиональны ...
  • Ошибка телохранителя / The Girl from the Naked Eye (Дэвид Рен, боевик, трил ...
  • Секса много не бывает / Un heureux evenement (Реми Безансон, драма, комедия ...
  • Иностранный легион / La cité (Ким Нгуйен / Kim Nguyen, драма, 2010) [DVDRip ...
  • Любовь / Love (Уильям Юбэнк, Фантастика, драма, 2011) [BDRip-AVC, Профессио ...
  • Судный день / The Day (Дуглас Арниокоски, фантастика, триллер, драма, 2011) ...
  • Эд Вуд / Ed Wood (Тим Бёртон, драма, комедия, биография, 1994) [BDRip-AVC, ...
  • 13 убийц / Jûsan-nin no shikaku (Такаси Миике, боевик, драма, приключения, ...
  • Переростки / The Inbetweeners (Бен Палмер / Ben Palmer, комедия, 2011) [BDR ...
  • Бессонная ночь / Nuit blanche (Фредерик Жарден, Боевик, 2011) [BDRip 720p, ...
  • Охотник / The Hunter (Дэниэл Неттхейм, драма, приключения, 2011) [BDRip 108 ...
  • Бульвар спасения / Salvation Boulevard (Джордж Рэтлифф, Боевик, триллер, др ...
  • Павшая империя / Hirokin (Алехо Мо-Сан, фантастика, боевик, драма, приключе ...
  • Большой отрыв БОБа / B.O.B.s Big Break (Роберт Портер, короткометражка, ан ...
  • Харакири 3D / Ichimei (Такаси Миике, драма, 2011) [HDRip, Профессиональный ...
  • Харакири 3D / Ichimei (Такаси Миике, драма, 2011) [HDRip, Профессиональный ...
  • Харакири 3D / Ichimei (Такаси Миике, драма, 2011) [DVD5, Профессиональный ( ...
  • Информация
    Посетители, находящиеся в группе Гости, не могут оставлять комментарии к данной публикации.