вход на сайт

Имя пользователя :
Пароль :

Восстановление пароля Регистрация
Три метра над уровнем неба: Я тебя хочу / Tengo ganas de ti / I Want You (Фернандо Гонзалез Молина, Драма, мелодрама, 2012) [BDRip 720p, Дубляж, Sub]
Рейтинг:
(голосов: 1)



[img]{THEME}/images/logopost.png[/img]



Три метра над уровнем неба: Я тебя хочу / Tengo ganas de ti / I Want You

Год выпуска: 2012
Страна: Испания
Производство:Antena 3 Films, Zeta Audiovisual
Жанр: Драма, мелодрама

Режиссёр: Фернандо Гонзалез Молина
В ролях: Марио Касас, Мария Вальверде, Клара Лаго, Альваро Сервантес, Андреа Дуро, Луис Фернандез, Марина Салас, Диего Мартин, Нереа Камачо, Ману Фульола

Перевод: Дубляж
Субтитры: Russian

Описание: Проведя два года в Лондоне, Аче возвращается домой, чтобы начать новую жизнь: устроиться на работу, завести новых друзей. Однако многое изменилось и встреча с Джин заставляет Аче почувствовать то, что он чувствовал только к Баби — своей первой большой и настоящей любви…

Релиз от:

Качество: BDRip 720p
Продолжительность: 02:03:33 час.


Формат: MKV
Видео кодек: x264
Аудио кодек: AC3
Видео: 1280x536 (2,40:1), 23,976 fps, x264 ~7 286 kbps avg, 0.443 bit/pixel
Аудио:48 kHz, AC3 Dolby Digital, 3/2 (L,C,R,l,r) + LFE ch, ~640 kbps

Дата премьеры (мир): 22 июня 2012
Дата премьеры (РФ): 5 июля 2012

MediaInfo ▼General
Unique ID : 246460637986388291630471637347988433030 (0xB96A979FBB8EAB169758AFAC21A06886)
Complete name : Tri.metra.nad.urovnem.neba.Ja.tebja.hochu.2012.D.BDRip.720p.IRONCLUB.mkv
Format : Matroska
Format version : Version 2
File size : 6.98 GiB
Duration : 2h 3mn
Overall bit rate : 8 087 Kbps
Movie name : IRONCLUB
Encoded date : UTC 2012-09-01 04:52:41
Writing application : mkvmerge v4.9.1 (Ich will) сборка от Jul 11 2011 23:53:15
Writing library : libebml v1.2.1 + libmatroska v1.1.1

Video
ID : 1
Format : AVC
Format/Info : Advanced Video Codec
Format profile : [email protected]
Format settings, CABAC : Yes
Format settings, ReFrames : 12 frames
Codec ID : V_MPEG4/ISO/AVC
Duration : 2h 3mn
Bit rate : 7 286 Kbps
Width : 1 280 pixels
Height : 536 pixels
Display aspect ratio : 2.40:1
Frame rate : 23.976 fps
Color space : YUV
Chroma subsampling : 4:2:0
Bit depth : 8 bits
Scan type : Progressive
Bits/(Pixel*Frame) : 0.443
Stream size : 6.29 GiB (90%)
Title : Tengo ganas de ti 2012 720p BluRay DD 5.1 x264-IRONCLUB
Writing library : x264 core 125 r2200 999b753
Encoding settings : cabac=1 / ref=12 / deblock=1:-3:-3 / analyse=0x3:0x113 / me=umh / subme=11 / psy=1 / psy_rd=1.05:0.10 / mixed_ref=1 / me_range=48 / chroma_me=1 / trellis=2 / 8x8dct=1 / cqm=0 / deadzone=21,11 / fast_pskip=0 / chroma_qp_offset=-2 / threads=12 / lookahead_threads=2 / sliced_threads=0 / nr=0 / decimate=1 / interlaced=0 / bluray_compat=0 / constrained_intra=0 / bframes=9 / b_pyramid=2 / b_adapt=2 / b_bias=0 / direct=3 / weightb=1 / open_gop=0 / weightp=2 / keyint=250 / keyint_min=23 / scenecut=40 / intra_refresh=0 / rc_lookahead=40 / rc=crf / mbtree=0 / crf=16.5 / qcomp=0.60 / qpmin=10 / qpmax=69 / qpstep=4 / vbv_maxrate=50000 / vbv_bufsize=62500 / crf_max=0.0 / nal_hrd=none / ip_ratio=1.40 / pb_ratio=1.30 / aq=1:1.00
Language : Spanish
Default : Yes
Forced : Yes
Matrix coefficients : BT.709-5, BT.1361, IEC 61966-2-4 709, SMPTE RP177

Audio
ID : 2
Format : AC-3
Format/Info : Audio Coding 3
Mode extension : CM (complete main)
Format settings, Endianness : Big
Codec ID : A_AC3
Duration : 2h 3mn
Bit rate mode : Constant
Bit rate : 640 Kbps
Channel(s) : 6 channels
Channel positions : Front: L C R, Side: L R, LFE
Sampling rate : 48.0 KHz
Bit depth : 16 bits
Compression mode : Lossy
Stream size : 566 MiB (8%)
Title : DD 5.1 @ 640 kbps - Dub, BD RUS
Language : Russian
Default : Yes
Forced : Yes

Text
ID : 3
Format : UTF-8
Codec ID : S_TEXT/UTF8
Codec ID/Info : UTF-8 Plain Text
Language : Russian
Default : No
Forced : No

Menu
00:00:00.000 : es:00:00:00.000
00:06:59.377 : es:00:06:59.377
00:15:55.913 : es:00:15:55.913
00:23:47.259 : es:00:23:47.259
00:32:58.810 : es:00:32:58.810
00:39:14.643 : es:00:39:14.643
00:49:04.066 : es:00:49:04.066
00:57:55.
17fcafb0e405b52567c1e1f99d7256c8ad94eb49Три метра над уровнем неба: Я тебя хочу / Tengo ganas de ti / I Want You (Фернандо Гонзалез Молина, Драма, мелодрама, 2012) [BDRip 720p, Дубляж, Sub] Три метра над уровнем неба: Я тебя хочу / Tengo ganas de ti / I Want You (Фернандо Гонзалез Молина, Драма, мелодрама, 2012) [BDRip 720p, Дубляж, Sub] " />

Аплоадер: Админ, дата: 1-09-2012, 12:01, торрент скачан: 359 раз

Понравилась раздача? Посмотрите эти:
  • Три метра над уровнем неба / Tres metros sobre el cielo (Фернандо Гонзалез ...
  • Три метра над уровнем неба / Tres metros sobre el cielo (Фернандо Гонзалез ...
  • Три метра над уровнем неба: Я тебя хочу / Tengo ganas de ti / I Want You (Ф ...
  • Три метра над уровнем неба: Я тебя хочу / Tengo ganas de ti / I Want You (Ф ...
  • Три метра над уровнем неба: Я тебя хочу / Tengo ganas de ti (Фернандо Гонза ...
  • Три метра над уровнем неба: Я тебя хочу / Tengo ganas de ti (Фернандо Гонза ...
  • Три метра над уровнем неба / Tres metros sobre el cielo (Фернандо Гонзалез ...
  • Три метра над уровнем неба / Tres metros sobre el cielo (Фернандо Гонзалез ...
  • Три метра над уровнем неба / Tres metros sobre el cielo (Фернандо Гонзалез ...
  • Три метра над уровнем неба / Tres metros sobre el cielo (Фернандо Гонзалез ...
  • Три метра над уровнем неба / Tres metros sobre el ciel (Фернандо Гонзалез М ...
  • Три метра над уровнем неба / Tres metros sobre el cielo (Фернандо Гонзалез ...
  • [iPhone] Три метра над уровнем неба / Tres metros sobre el cielo (Фернандо ...
  • Три метра над уровнем неба / Tres metros sobre el cielo (Фернандо Гонзалез ...
  • Три метра над уровнем неба / Tres metros sobre el cielo (Фернандо Гонзалез ...
  • Три метра над уровнем неба / Tres metros sobre el cielo (Фернандо Гонзалез ...
  • Три метра над уровнем неба: Я тебя хочу / Tengo ganas de ti / I Want You (Ф ...
  • Три метра над уровнем неба: Я тебя хочу / Tengo ganas de ti / I Want You (Ф ...
  • Три метра над уровнем неба: Я тебя хочу / Tengo ganas de ti / I Want You (Ф ...
  • Три метра над уровнем неба: Я тебя хочу / Tengo ganas de ti / I Want You (Ф ...
  • Информация
    Посетители, находящиеся в группе Гости, не могут оставлять комментарии к данной публикации.