вход на сайт

Имя пользователя :
Пароль :

Восстановление пароля Регистрация
Пираньи 3DD / Piranha 3DD (Джон Гулажер, ужасы, триллер, комедия, 2012) [BDRip 720p, Дубляж, Любительский (одноголосый закадровый), Оригинал, Sub]
Рейтинг:
(голосов: 1)



[img]{THEME}/images/logopost.png[/img]



Пираньи 3DD / Piranha 3DD
«Double the action. Double the terror. Double the Ds.»


Год выпуска: 2012
Страна: США
Производство: Dimension Films
Жанр: Ужасы, триллер, комедия

Режиссёр: Джон Гулажер
В ролях: Даниэль Панабэйкер, Мэтт Буш, Дэвид Кокнер, Катрина Боуден, Крис Зилка, Жан-Люк Билодо, Кристофер Ллойд, Гэри Бьюзи, Адриан Мартинез, Пол Джейм

Перевод: Дубляж, Любительский (одноголосый закадровый), Оригинал
Субтитры: русские,английские(full,SDH)

Описание: Доисторические твари больше не будут ограничиваться поеданием туристов на озере, а проникнут через водопроводные и канализационные сети в бассейны и иные искусственные водоемы нового аквапарка под названием Wilderness Waters. Именно там и развернется основное действие.


Качество: BDRip 720p[CtrlHD]
Продолжительность: 01:22:41 час.


Формат: MKV
Видео кодек: x264
Аудио кодек: AC3, DTS
Видео: 1280x720 (16:9), 23,976 fps, x264 ~ 9 596 kbps avg, 0.434 bit/pixel
Аудио#1: 48 kHz, AC3 Dolby Digital, 3/2 (L,C,R,l,r) + LFE ch, ~384 kbps- (Дубляж)
Аудио#2: 48 kHz, AC3 Dolby Digital, 3/2 (L,C,R,l,r) + LFE ch, ~384 kbps- (Zamez)
Аудио#3: 48 kHz, DTS, 3/2 (L,C,R,l,r) + LFE ch, ~1536.00 kbps avg- (Оригинал)

Дата премьеры (мир): 11 мая 2012
Дата премьеры (РФ): 23 августа 2012, «Централ Партнершип»

MediaInfo ▼General
Unique ID : 239334531463789529869187199891610405747 (0xB40E2772423D4C719702A16F0D820B73)
Complete name : D:/Piranha.3DD.2012.720p.BluRay.DTS.x264-CtrlHD.mkv
Format : Matroska
Format version : Version 2
File size : 7.00 GiB
Duration : 1h 22mn
Overall bit rate : 12.1 Mbps
Movie name : -Talian-
Encoded date : UTC 2012-08-31 18:05:16
Writing application : mkvmerge v5.7.0 (The Whirlwind) built on Jul 8 2012 20:08:51
Writing library : libebml v1.2.3 + libmatroska v1.3.0

Video
ID : 1
Format : AVC
Format/Info : Advanced Video Codec
Format profile : [email protected]
Format settings, CABAC : Yes
Format settings, ReFrames : 4 frames
Codec ID : V_MPEG4/ISO/AVC
Duration : 1h 22mn
Bit rate : 9 596 Kbps
Width : 1 280 pixels
Height : 720 pixels
Display aspect ratio : 16:9
Frame rate : 23.976 fps
Color space : YUV
Chroma subsampling : 4:2:0
Bit depth : 8 bits
Scan type : Progressive
Bits/(Pixel*Frame) : 0.434
Stream size : 5.54 GiB (79%)
Title : Piranha 3DD 2012 720p BluRay DTS x264-CtrlHD
Writing library : x264 core 125 r2208kMod d9d2288
Encoding settings : cabac=1 / ref=4 / deblock=1:-3:-3 / analyse=0x3:0x113 / me=umh / subme=11 / psy=1 / fade_compensate=0.00 / psy_rd=1.05:0.00 / mixed_ref=1 / me_range=16 / chroma_me=1 / trellis=2 / 8x8dct=1 / cqm=0 / deadzone=21,11 / fast_pskip=0 / chroma_qp_offset=-2 / threads=6 / lookahead_threads=1 / sliced_threads=0 / nr=0 / decimate=0 / interlaced=0 / bluray_compat=0 / constrained_intra=0 / bframes=8 / b_pyramid=2 / b_adapt=2 / b_bias=0 / direct=3 / weightb=1 / open_gop=0 / weightp=2 / keyint=250 / keyint_min=23 / scenecut=40 / intra_refresh=0 / rc=crf / mbtree=0 / crf=17.5000 / qcomp=0.80 / qpmin=0 / qpmax=69 / qpstep=4 / ip_ratio=1.30 / pb_ratio=1.20 / aq=1:0.85
Language : English
Default : No
Forced : No

Audio #1
ID : 2
Format : AC-3
Format/Info : Audio Coding 3
Mode extension : CM (complete main)
Format settings, Endianness : Big
Codec ID : A_AC3
Duration : 1h 22mn
Bit rate mode : Constant
Bit rate : 384 Kbps
Channel(s) : 6 channels
Channel positions : Front: L C R, Side: L R, LFE
Sampling rate : 48.0 KHz
Bit depth : 16 bits
Compression mode : Lossy
Stream size : 227 MiB (3%)
Title : DUB
Language : Russian
Default : Yes
Forced : No

Audio #2
ID : 3
Format : AC-3
Format/Info : Audio Coding 3
Mode extension : CM (complete main)
Format settings, Endianness : Big
Codec ID : A_AC3
Duration : 1h 22mn
Bit rate mode : Constant
Bit rate : 384 Kbps
Channel(s) : 6 channels
Channel positions : Front: L C R, Side: L R, LFE
Sampling rate
c7a875e3228aacf82d382821f1ef169ca9212bfaПираньи 3DD / Piranha 3DD (Джон Гулажер, ужасы, триллер, комедия, 2012) [BDRip 720p, Дубляж, Любительский (одноголосый закадровый), Оригинал, Sub] Пираньи 3DD / Piranha 3DD (Джон Гулажер, ужасы, триллер, комедия, 2012) [BDRip 720p, Дубляж, Любительский (одноголосый закадровый), Оригинал, Sub] " />

Аплоадер: Админ, дата: 1-09-2012, 01:50, торрент скачан: 359 раз

Понравилась раздача? Посмотрите эти:
  • Кровью и потом: Анаболики / Pain & Gain (Майкл Бэй, криминал, комедия, трил ...
  • Толстяк на ринге / Here Comes the Boom (Фрэнк Корачи, Боевик, комедия, 201 ...
  • Черный дрозд / Deadfall (Штефан Руцовицки, Триллер, драма, криминал, 2012) ...
  • Репортаж из преисподней / [REC] 2 (Жауме Балагуэро, Пако Пласа, ужасы, трил ...
  • [EN] Пираньи 3DD / Piranha 3DD (Джон Гулажер, ужасы, триллер, комедия, 2012 ...
  • Пираньи 3DD / Piranha 3DD (Джон Гулажер, ужасы, триллер, 2012) [BDRip-AVC, ...
  • Пираньи 3DD / Piranha 3DD (Джон Гулажер, ужасы, триллер, 2012) [BDRip-AVC, ...
  • Пираньи 3DD / Piranha 3DD (Джон Гулажер, Ужасы, триллер, комедия, 2012) [HD ...
  • [3D] Пираньи 3Д / Piranha 3D (Александр Ажа / Alexandre Aja, ужасы, боевик, ...
  • [3D] Пираньи 3DD / Piranha 3DD (Джон Гулажер / John Gulager, Ужасы, Триллер ...
  • Мачо и ботан / 21 Jump Street (Фил Лорд, Крис Миллер, боевик, комедия, 2012 ...
  • «Весёлые» каникулы / Get the Gringo (Адриан Грюнберг, Боевик, комедия, 2012 ...
  • Ворон / The Raven (Джеймс МакТиг, Триллер, детектив, 2012) [BDRip 720p, Дуб ...
  • Хижина в лесу / The Cabin in the Woods (Дрю Годдард, ужасы, триллер, 2012) ...
  • Красные огни / Red Lights (Родриго Кортес, Ужасы, триллер, драма, 2012) [BD ...
  • Цунами 3D / Bait (Кимбл Рендалл, Ужасы, боевик, триллер, 2011) [BDRip 720p ...
  • Патруль / End of Watch (Дэвид Эйр, Триллер, драма, криминал, 2012) [BDRip 7 ...
  • Явление / The Apparition (Тодд Линкольн, Ужасы, триллер, 2012) [BDRip 720p, ...
  • Слова / The Words [EXTENDED] (Ли Стернтал, Драма, мелодрама, 2012) [BDRip 7 ...
  • Пираньи 3DD / Piranha 3DD (Джон Гулажер, ужасы, триллер, комедия, 2012) [HD ...
  • Информация
    Посетители, находящиеся в группе Гости, не могут оставлять комментарии к данной публикации.