вход на сайт

Имя пользователя :
Пароль :

Восстановление пароля Регистрация
Рапунцель: Счастлива навсегда / Tangled Ever After ( Нэйтан Грено, Байрон Ховард, Мультфильм, короткометражка,2012г.) [Blu-ray Remux (1080p), Профессиональный (дублированный), Любительский (многоголосый) + English, Субтитры ]
Рейтинг:
(голосов: 1)



[img]{THEME}/images/logopost.png[/img]



Рапунцель: Счастлива навсегда / Tangled Ever After


Год выпуска: 2012
Страна: США
Производство:Walt Disney Animation Studios
Жанр:Мультфильм, короткометражка

Режиссёр: Нэйтан Грено, Байрон Ховард
В ролях:Закари Ливай, Мэнди Мур, Марк Аллан Стюарт

Перевод: Профессиональный (дублированный) [Невафильм], Любительский (многоголосый) [SkyeFilmTV]
Субтитры: English

Описание:
В волшебном королевстве грандиозный праздник: Рапунцель идет под венец! Все затаив дыхание ждут торжественной минуты. Но свадебная церемония грозит обернуться катастрофой: конь Максимус и хамелеон Паскаль теряют подвенечные кольца. У них остается всего несколько минут, чтобы найти пропажу.



Качество: Blu-ray Remux (1080p)
Продолжительность: 00:06:29

Формат: MKV
Главы: (нет)
Видео кодек: MPEG-4
Аудио кодек: DTS-HD Master Audio, Dolby Digital Audio
Видео: 1920x1080р (16:9) at 23,976 fps, MPEG-4 AVC, ~35.4Mbps avg, Main Profile 4.1
Аудио:
AC3, 48 KHz, 2 channels, 192 Kbps - Дубляж [Невафильм]
DTS-HD MA, 48 KHz, 8 channels, 5472 kbps (DTS Core: 5.1 / 48 kHz / 1509 kbps / 24-bit) - MVO [SkyeFilmTV]
DTS-HD MA, 48 KHz, 8 channels, 5523 kbps (DTS Core: 5.1 / 48 kHz / 1509 kbps / 24-bit) - ENG [Оригинал]

Дата премьеры (мир): 13 января 2012
Дата премьеры (РФ): 21 июня 2012

сэмпл
BDinfo ▼
General
Unique ID : 249366957394667616682126936473121897138 (0xBB9A543BE18DE9D0BE84673529E0BAB2)
Complete name : G:РаздачиTangled.Ever.After.2012.BDRemux.1080p.RUS.ENG.Subs-HDT.mkv
Format : Matroska
Format version : Version 2
File size : 1.82 GiB
Duration : 6mn 29s
Overall bit rate mode : Variable
Overall bit rate : 40.2 Mbps
Movie name : Tangled Ever After (2012) BDRip 1080p
Encoded date : UTC 2012-08-28 18:50:03
Writing application : mkvmerge v5.5.0 (Healer) built on Apr 6 2012 21:43:24
Writing library : libebml v1.2.3 + libmatroska v1.3.0

Video
ID : 1
Format : AVC
Format/Info : Advanced Video Codec
Format profile : [email protected]
Format settings, CABAC : Yes
Format settings, ReFrames : 4 frames
Format settings, GOP : M=1, N=12
Codec ID : V_MPEG4/ISO/AVC
Duration : 6mn 29s
Bit rate mode : Variable
Bit rate : 35.4 Mbps
Maximum bit rate : 33.0 Mbps
Width : 1 920 pixels
Height : 1 080 pixels
Display aspect ratio : 16:9
Frame rate : 23.976 fps
Color space : YUV
Chroma subsampling : 4:2:0
Bit depth : 8 bits
Scan type : Progressive
Bits/(Pixel*Frame) : 0.712
Stream size : 1.60 GiB (88%)
Language : English
Default : Yes
Forced : No

Audio #1
ID : 2
Format : AC-3
Format/Info : Audio Coding 3
Mode extension : CM (complete main)
Format settings, Endianness : Big
Codec ID : A_AC3
Duration : 6mn 29s
Bit rate mode : Constant
Bit rate : 192 Kbps
Channel(s) : 2 channels
Channel positions : Front: L R
Sampling rate : 48.0 KHz
Bit depth : 16 bits
Compression mode : Lossy
Stream size : 8.91 MiB (0%)
Title : DUB
Language : Russian
Default : Yes
Forced : No

Audio #2
ID : 3
Format : DTS
Format/Info : Digital Theater Systems
Format profile : MA / Core
Codec ID : A_DTS
Duration : 6mn 29s
Bit rate mode : Variable
Bit rate : 1 597 Kbps / 1 510 Kbps
Channel(s) : 8 channels / 6 channels
Channel positions : Front: L C R, Side: L R, Back: L R, LFE / Front: L C R, Side: L R, LFE
Sampling rate : 48.0 KHz
Bit depth : 24 bits
Compression mode : Lossless / Lossy
Title : MVO [SkyeFilmTV]
Language : Russian
Default : No
Forced : No

Audio #3
ID : 4
Format : DTS
Format/Info : Digital Theater Systems
Format profile : MA / Core
Codec ID : A_DTS
Duration : 6mn 29s
Bit rate mode : Variable
Bit rate : 2 212 Kbps / 1 510 Kbps
Channel(s) : 8 channels / 6 channels
Channel positions : Front: L C R, Side: L R, Back: L R, LFE / Front: L C R, Side: L R, LFE
Sampling rate : 48.0 KHz
Bit depth : 24 bits
Compression mode : Lossless / Lossy
Language : English
Default : No
Forced : No

Text #1
ID : 5
Format : UTF-8
Codec ID : S_TEXT/UTF8
Codec ID/Info : UTF-8 Plain Text
Title : Forced
Language : Russian
Default : Yes
Forced : No
dc3a76dbff3b99db7076ee4e4f37c093d6f50c01Рапунцель: Счастлива навсегда / Tangled Ever After ( Нэйтан Грено, Байрон Ховард, Мультфильм, короткометражка,2012г.) [Blu-ray Remux (1080p), Профессиональный (дублированный), Любительский (многоголосый) + English, Субтитры ] Рапунцель: Счастлива навсегда / Tangled Ever After ( Нэйтан Грено, Байрон Ховард, Мультфильм, короткометражка,2012г.) [Blu-ray Remux (1080p), Профессиональный (дублированный), Любительский (многоголосый) + English, Субтитры ] " />

Аплоадер: Админ, дата: 29-08-2012, 20:14, торрент скачан: 359 раз

Понравилась раздача? Посмотрите эти:
  • Штурм Белого дома / White House Down (Роланд Эммерих, боевик, триллер, 2013 ...
  • Рапунцель: Счастлива навсегда / Tangled Ever After (Нэйтан Грено, Байрон Хо ...
  • Нубы / Noobz (Блейк Фриман, Комедия, 2012) [BDRemux 1080p, Профессиональный ...
  • Дом с паранормальными явлениями / A Haunted House (Майкл Тиддес, Ужасы, ком ...
  • Родительский беспредел / Parental Guidance (Энди Фикмен, Комедия, семейный, ...
  • [3D] Рапунцель: Счастлива навсегда / Tangled Ever After (Нэйтан Грено, Байр ...
  • Персонаж / Stranger Than Fiction (Марк Форстер, Комедия, драма, фантастика, ...
  • Рапунцель: Запутанная история / Tangled (Натан Грено, Байрон Ховард, мульт ...
  • Рапунцель: Счастлива навсегда / Tangled Ever After (Нэйтан Грено, Байрон Хо ...
  • [3D] Рапунцель: Запутанная история / Tangled (Нэйтан Грено, Байрон Ховард, ...
  • [3D] Рапунцель: Счастлива навсегда в 3Д / Tangled Ever After 3D(Нэйтан Грен ...
  • Ледниковый период: Гигантское Рождество / Ice Age: A Mammoth Christmas (Кар ...
  • Чаббчаббы спасают Рождество / The Chubbchubbs Save Xmas (Коуди Камерон, мул ...
  • Рапунцель: Запутанная история / Tangled (Натан Грено, Байрон Ховард / Natha ...
  • Стыд / Shame (Стив МакКуин, драма, 2011) [BDRemux 1080p, Дублированный + Од ...
  • Притворись моей женой / Just go with it (Деннис Дуган, мелодрама, комедия, ...
  • Бульвар страха / Rosewood Lane (Виктор Сальва, Ужасы, триллер, 2011) [BD-Re ...
  • Призрак в школе / Haunted High (Джеффри Скотт Ландо, ужасы, фантастика, 201 ...
  • Шкатулка проклятия / The Possession (Уле Борнедаль, ужасы, триллер, 2012) [ ...
  • [3D] Рапунцель: Запутанная история 3D / Tangled 3D (Нэйтан Грено, Байрон Хо ...
  • Информация
    Посетители, находящиеся в группе Гости, не могут оставлять комментарии к данной публикации.