вход на сайт

Имя пользователя :
Пароль :

Восстановление пароля Регистрация
Счастливчик / The Lucky One (Скотт Хикс, Драма, мелодрама, 2012) [BD-Remux 1080p, Дубляж, Оригинал, Sub]
Рейтинг:
(голосов: 1)



[img]{THEME}/images/logopost.png[/img]



Счастливчик / The Lucky One

Год выпуска: 2012
Страна: США
Производство: DiNovi Pictures, Langley Park Productions
Жанр: Драма, мелодрама

Режиссёр: Скотт Хикс
В ролях: Зак Эфрон, Тейлор Шиллинг, Блайт Даннер, Райли Стюарт, Джей Р. Фергюсон, Адам ЛеФевр, Роберт Хэйес, Джо Крест, Расселл Дархэм Комегис, Шарон Моррис

Перевод: Дубляж, Оригинал
Субтитры: Русские, английские

Описание: Морской пехотинец Логан Тибо сумел остаться в живых после трех военных миссий в Ираке. Своим талисманом он считает фото, которое всегда носит с собой — на нем совершенно незнакомая ему женщина. По возвращении в Северную Каролину Тибо решает разыскать ее.

Качество: BD-Remux 1080p
Продолжительность: 01:40:53 час.


Формат: MKV
Видео кодек: x264
Аудио кодек: AC3, DTS-HD Master Audio
Видео: 1920x1080 (16:9), 23.976 fps, x264 ~ 18,7 mb/s, 0.376 bit/pixel
Аудио#1: 48 kHz, AC3 Dolby Digital, 3/2 (L,C,R,l,r) + LFE ch, ~640 kbps - (Дубляж)
Аудио#2: DTS-HD Master Audio 3823 kbps 5.1 / 48 kHz / 3823 kbps / 24-bit (DTS Core: 5.1 / 48 kHz / 1509 kbps / 24-bit)- (English)

Дата премьеры (мир): 19 апреля 2012
Дата премьеры (РФ): 17 мая 2012, «Каро-Премьер»

MediaInfo ▼Общее
Уникальный идентификатор : 253224343544863246538929098821645547730 (0xBE813C0DF6FA4CB681BDBB10DE52B8D2)
Полное имя : Z:/BLU-RAY REMUXSchastlivchik.2012.MPEG-4-AVC.BluRay-Remux(1080p).mkv
Формат : Matroska
Версия формата : Version 2
Размер файла : 15,7 Гбайт
Продолжительность : 1 ч. 40 м.
Режим общего битрейта : Переменный
Общий поток : 22,2 Мбит/сек
Название фильма : --SCHUMAHER--
Дата кодирования : UTC 2012-08-27 13:35:56
Программа кодирования : mkvmerge v5.7.0 (The Whirlwind) built on Jul 8 2012 20:08:51
Библиотека кодирования : libebml v1.2.3 + libmatroska v1.3.0

Видео
Идентификатор : 1
Формат : AVC
Формат/Информация : Advanced Video Codec
Профиль формата : [email protected]
Параметр CABAC формата : Да
Параметр ReFrames формата : 2 кадра
Параметр GOP формата : M=1, N=10
Идентификатор кодека : V_MPEG4/ISO/AVC
Продолжительность : 1 ч. 40 м.
Вид битрейта : Переменный
Битрейт : 18,7 Мбит/сек
Ширина : 1920 пикселей
Высота : 1080 пикселей
Соотношение сторон : 16:9
Частота кадров : 23,976 кадра/сек
Цветовое пространство : YUV
Субдискретизация насыщенности : 4:2:0
Битовая глубина : 8 бит
Тип развёртки : Прогрессивная
Бит/(Пиксели*Кадры) : 0.376
Размер потока : 13,2 Гбайт (84%)
Язык : English
Default : Да
Forced : Да

Аудио #1
Идентификатор : 2
Формат : AC-3
Формат/Информация : Audio Coding 3
Расширение режима : CM (complete main)
Параметр Endianness формата : Big
Идентификатор кодека : A_AC3
Продолжительность : 1 ч. 40 м.
Вид битрейта : Постоянный
Битрейт : 640 Кбит/сек
Каналы : 6 каналов
Расположение каналов : Front: L C R, Side: L R, LFE
Частота : 48,0 КГц
Битовая глубина : 16 бит
Метод сжатия : С потерями
Размер потока : 462 Мбайт (3%)
Язык : Russian
Default : Да
Forced : Да

Аудио #2
Идентификатор : 3
Формат : DTS
Формат/Информация : Digital Theater Systems
Профиль формата : MA / Core
Идентификатор кодека : A_DTS
Продолжительность : 1 ч. 40 м.
Вид битрейта : Переменный
Битрейт : 2428 Кбит/сек / 1510 Кбит/сек
Каналы : 6 каналов
Расположение каналов : Front: L C R, Side: L R, LFE
Частота : 48,0 КГц
Битовая глубина : 24 бит
Метод сжатия : Без потерь / Lossy
Язык : English
Default : Нет
Forced : Нет

Текст #1
Идентификатор : 4
Формат : UTF-8
Идентификатор кодека : S_TEXT/UTF8
Идентификатор кодека/Информация : UTF-8 Plain Text
Язык : Russian
Default : Нет
Forced : Нет

Текст #2
Идентификатор : 5
Формат : UTF-8
Идентификатор кодека : S_TEXT/UTF8
Идентификатор кодека/Информация : UTF-8 Plain Text
Заголовок : Full
Язык : English
Default : Нет
Forced : Нет

Текст #3
Идентификатор : 6
Формат : UTF-8
Идентификатор кодека : S_TEXT/UTF8
Идентификатор кодека/Информация : UTF-8 Plain Text
Заголовок : Full SDH
Язык : English
Default : Нет
Forced : Нет

Меню
00:00:00.000 : en: H
218427d43bfa87662ff28bcc83d273a40bc00fc9Счастливчик / The Lucky One (Скотт Хикс, Драма, мелодрама, 2012) [BD-Remux 1080p, Дубляж, Оригинал, Sub] Счастливчик / The Lucky One (Скотт Хикс, Драма, мелодрама, 2012) [BD-Remux 1080p, Дубляж, Оригинал, Sub] " />

Аплоадер: Админ, дата: 27-08-2012, 21:34, торрент скачан: 359 раз

Понравилась раздача? Посмотрите эти:
  • 21 и больше / 21 & Over (Джон Лукас, Скотт Мур, Комедия, 2013) [BD-Remux 10 ...
  • Поймай толстуху, если сможешь [Театральная версия] / Identity Thief [Theatr ...
  • G.I. Joe: Бросок кобры 2 [Театральная версия] / G.I. Joe: Retaliation [Thea ...
  • Падение Олимпа / Olympus Has Fallen (Антуан Фукуа, Боевик, триллер, 2013) [ ...
  • Счастливчик / The Lucky One (Скотт Хикс, Драма, мелодрама, 2012) [HDRip-AVC ...
  • Счастливчик / The Lucky One (Скотт Хикс, Драма, мелодрама, 2012) [BDRip-AVC ...
  • Счастливчик / The Lucky One (Скотт Хикс, драма, мелодрама, 2012) [BDRip - A ...
  • Защитник / Safe (Боаз Якин, Боевик, криминал, 2012) [BD-Remux 1080p [USA Tr ...
  • Диктатор / The Dictator (Ларри Чарльз, Комедия, 2012) [BD-Remux 1080p, Дубл ...
  • Счастливчик / The Lucky One (Скотт Хикс, драма, мелодрама, 2012г.) [BDRip ...
  • Счастливчик / The Lucky One (Скотт Хикс, Драма, мелодрама, 2012) [BDRip 720 ...
  • Счастливчик / The Lucky One (Скотт Хикс, Драма, мелодрама, 2012) [BDRip 108 ...
  • Чего ждать, когда ждешь ребенка / What to Expect When Youre Expecting (Кирк ...
  • Средь бела дня / The Cold Light of Day (Мабрук Эль Мекри, Боевик, триллер, ...
  • Красные огни / Red Lights (Родриго Кортес, Ужасы, триллер, драма, 2012) [BD ...
  • Белоснежка и охотник [Расширенная версия] / Snow White and the Huntsman [U ...
  • Ищу друга на конец света / Seeking a Friend for the End of the World (Лорен ...
  • Супер Майк / Magic Mike (Стивен Содерберг, Драма, комедия, 2012) [BD-Remux ...
  • Папа-Досвидос [Театральная версия] / Thats My Boy [Theatrical Cut] (Шон Анд ...
  • Счастливчик / The Lucky One (Скотт Хикс, Драма, мелодрама, 2012) [HDRip, Ду ...
  • Счастливчик / The Lucky One (Скотт Хикс, Драма, мелодрама, 2012) [BDRip, Ду ...
  • Счастливчик / The Lucky One (Скотт Хикс, Драма, мелодрама, 2012) [BDRip, Ду ...
  • Счастливчик / The Lucky One (Скотт Хикс, Драма, мелодрама, 2012) [Blu-ray [ ...
  • Счастливчик / The Lucky One (Скотт Хикс, Драма, Мелодрама, 2012) [480x200] ...
  • Счастливчик / The Lucky One (Скотт Хикс, Драма, Мелодрама, 2012) [320x240] ...
  • Информация
    Посетители, находящиеся в группе Гости, не могут оставлять комментарии к данной публикации.