вход на сайт

Имя пользователя :
Пароль :

Восстановление пароля Регистрация
Диктатор / The Dictator (Ларри Чарльз, Комедия, 2012) [BD-Remux 1080p, Дубляж, Оригинал, Ukrainian, Sub]
Рейтинг:
(голосов: 1)



[img]{THEME}/images/logopost.png[/img]



Диктатор / The Dictator

Год выпуска: 2012
Страна: США
Производство: Four by Two Films, Kanzaman
Жанр: Комедия

Режиссёр: Ларри Чарльз
В ролях: Саша Барон Коэн, Анна Фэрис, Бен Кингсли, Джейсон Манцукас, Саид Бадрия, Мишель Берг, Роки Ситрон, Лиам Кампора, Аасиф Мандви, Ризван Манжи, Рик Чэмберс, Эльсайед Мохамед, Адиль Ахтар, Орасио Санс, Елена Гуд, Назанин Хома, Доун Зимняк, Виктория Белтран, Даниэль Бургио, Доминик ДиКаприо, Аджа Фрари, Фред Меламед, Куко Усин

Перевод: Дубляж, Оригинал, Ukrainian
Субтитры: Русские, украинские, английские

Описание: Героическая история диктатора, который рискует своей жизнью, чтобы ни в коем случае не допустить демократию в свою столь любовно угнетаемую страну.
Качество: BD-Remux 1080p
Продолжительность: 01:23:17 час.


Формат: MKV
Видео кодек: x264
Аудио кодек: AC3, DTS-HD Master Audio
Видео: 1920x1080 (16:9), 23.976 fps, x264 ~ 31,7 mb/s, 0.638 bit/pixel
Аудио#1:48 kHz, AC3 Dolby Digital, 3/2 (L,C,R,l,r) + LFE ch, ~448 kbps - (Дубляж)
Аудио#2:DTS-HD Master Audio3792 kbps 5.1 / 48 kHz / 3792 kbps / 24-bit (DTS Core: 5.1 / 48 kHz / 1509 kbps / 24-bit) - (Оригинал)
Аудио#3:48 kHz, AC3 Dolby Digital, 3/2 (L,C,R,l,r) + LFE ch, ~448 kbps - (Ukrainian)

Дата премьеры (мир): 16 мая 2012
Дата премьеры (РФ): 17 мая 2012, «Централ Партнершип»

MediaInfo ▼Общее
Уникальный идентификатор : 208565513133434990892569118910824613097 (0x9CE841B7D02F4B51B13A7ECC3BD884E9)
Полное имя : Z:/BLU-RAY REMUXDiktator(Teatralnaja.versija).2012.MPEG-4-AVC.BluRay-Remux(1080p).mkv
Формат : Matroska
Версия формата : Version 2
Размер файла : 20,3 Гбайт
Продолжительность : 1 ч. 23 м.
Режим общего битрейта : Переменный
Общий поток : 34,9 Мбит/сек
Название фильма : --SCHUMAHER--
Дата кодирования : UTC 2012-08-26 15:52:16
Программа кодирования : mkvmerge v5.7.0 (The Whirlwind) built on Jul 8 2012 20:08:51
Библиотека кодирования : libebml v1.2.3 + libmatroska v1.3.0

Видео
Идентификатор : 1
Формат : AVC
Формат/Информация : Advanced Video Codec
Профиль формата : [email protected]
Параметр CABAC формата : Да
Параметр ReFrames формата : 2 кадра
Параметр GOP формата : M=1, N=10
Идентификатор кодека : V_MPEG4/ISO/AVC
Продолжительность : 1 ч. 23 м.
Вид битрейта : Переменный
Битрейт : 31,7 Мбит/сек
Ширина : 1920 пикселей
Высота : 1080 пикселей
Соотношение сторон : 16:9
Частота кадров : 23,976 кадра/сек
Цветовое пространство : YUV
Субдискретизация насыщенности : 4:2:0
Битовая глубина : 8 бит
Тип развёртки : Прогрессивная
Бит/(Пиксели*Кадры) : 0.638
Размер потока : 18,5 Гбайт (91%)
Язык : English
Default : Да
Forced : Да

Аудио #1
Идентификатор : 2
Формат : AC-3
Формат/Информация : Audio Coding 3
Расширение режима : CM (complete main)
Параметр Endianness формата : Big
Идентификатор кодека : A_AC3
Продолжительность : 1 ч. 23 м.
Вид битрейта : Постоянный
Битрейт : 448 Кбит/сек
Каналы : 6 каналов
Расположение каналов : Front: L C R, Side: L R, LFE
Частота : 48,0 КГц
Битовая глубина : 16 бит
Метод сжатия : С потерями
Размер потока : 267 Мбайт (1%)
Язык : Russian
Default : Да
Forced : Да

Аудио #2
Идентификатор : 3
Формат : AC-3
Формат/Информация : Audio Coding 3
Расширение режима : CM (complete main)
Параметр Endianness формата : Big
Идентификатор кодека : A_AC3
Продолжительность : 1 ч. 23 м.
Вид битрейта : Постоянный
Битрейт : 448 Кбит/сек
Каналы : 6 каналов
Расположение каналов : Front: L C R, Side: L R, LFE
Частота : 48,0 КГц
Битовая глубина : 16 бит
Метод сжатия : С потерями
Размер потока : 267 Мбайт (1%)
Язык : Ukrainian
Default : Нет
Forced : Нет

Аудио #3
Идентификатор : 4
Формат : DTS
Формат/Информация : Digital Theater Systems
Профиль формата : MA / Core
Идентификатор кодека : A_DTS
Продолжительность : 1 ч. 23 м.
Вид битрейта : Переменный
Битрейт : 1576 Кбит/сек / 1510 Кбит/сек
Каналы
22e361b124b278fdc6b829d5d85cd665b0321589Диктатор / The Dictator (Ларри Чарльз, Комедия, 2012) [BD-Remux 1080p, Дубляж, Оригинал, Ukrainian, Sub] Диктатор / The Dictator (Ларри Чарльз, Комедия, 2012) [BD-Remux 1080p, Дубляж, Оригинал, Ukrainian, Sub] " />

Аплоадер: Админ, дата: 27-08-2012, 00:44, торрент скачан: 359 раз

Понравилась раздача? Посмотрите эти:
  • Поймай толстуху, если сможешь [Театральная версия] / Identity Thief [Theatr ...
  • G.I. Joe: Бросок кобры 2 [Театральная версия] / G.I. Joe: Retaliation [Thea ...
  • Диктатор / The Dictator [UNRATED] (Ларри Чарльз, Комедия, 2012) [HDRip, Авт ...
  • Диктатор [Расширенная версия] / The Dictator [UNRATED] (Ларри Чарльз, Комед ...
  • Диктатор [Расширенная версия] / The Dictator [UNRATED] (Ларри Чарльз, комед ...
  • Диктатор [Театральная версия] / The Dictator [Theatrical Cut] (Ларри Чарльз ...
  • Диктатор [Театральная версия] / The Dictator [Theatrical Cut] (Ларри Чарльз ...
  • Диктатор [Расширенная версия] / The Dictator [UNRATED] (Ларри Чарльз, Комед ...
  • Другой мир: Пробуждение / Underworld: Awakening (Манс Марлинд, Бьёрн Стейн, ...
  • Диктатор / The Dictator (Ларри Чарльз, Комедия, 2012) [BDRip-AVC, Дубляж, О ...
  • Счастливчик / The Lucky One (Скотт Хикс, Драма, мелодрама, 2012) [BD-Remux ...
  • Белоснежка и охотник [Расширенная версия] / Snow White and the Huntsman [U ...
  • Ищу друга на конец света / Seeking a Friend for the End of the World (Лорен ...
  • Супер Майк / Magic Mike (Стивен Содерберг, Драма, комедия, 2012) [BD-Remux ...
  • Папа-Досвидос [Театральная версия] / Thats My Boy [Theatrical Cut] (Шон Анд ...
  • Диктатор [Театральная версия] / The Dictator [Theatrical Cut] (Ларри Чарльз ...
  • Диктатор [Театральная версия] / The Dictator [Theatrical Cut] (Ларри Чарльз ...
  • Диктатор [Театральная версия] / The Dictator [Theatrical Cut] (Ларри Чарльз ...
  • Диктатор [Театральная версия] / The Dictator [Theatrical Cut] (Ларри Чарль ...
  • Диктатор / The Dictator (Ларри Чарльз, Комедия, 2012) [320x240] [HDRip, Дуб ...
  • Информация
    Посетители, находящиеся в группе Гости, не могут оставлять комментарии к данной публикации.