вход на сайт

Имя пользователя :
Пароль :

Восстановление пароля Регистрация
Мстители / The Avengers (Джосс Уидон, фантастика, боевик, триллер, 2012) [BDRip 1080p, полное дублирование (рус., укр), оригинал, субтитры]
Рейтинг:
(голосов: 1)



[img]{THEME}/images/logopost.png[/img]



Мстители / The Avengers
«Some assembly required.»

Год выпуска: 2012
Страна: США
Производство: Marvel Enterprises, Marvel Studios Inc.
Жанр: фантастика, боевик, триллер

Режиссёр: Джосс Уидон
В ролях: Роберт Дауни мл., Крис Эванс, Марк Руффало, Крис Хемсворт, Скарлетт Йоханссон, Джереми Реннер, Том Хиддлстон, Сэмюэл Л. Джексон, Кларк Грегг, Коби Смолдерс

Перевод:полное дублирование (рус., укр), оригинал
Субтитры: Русские, украинские, английские

Описание:Локи, сводный брат Тора, возвращается, и в этот раз он не один. Земля на грани порабощения, и только лучшие из лучших могут спасти человечество.

Ник Фьюри, глава международной организации Щ. И. Т., собирает выдающихся поборников справедливости и добра, чтобы отразить атаку. Под предводительством Капитана Америки Железный Человек, Тор, Невероятный Халк, Соколиный глаз и Чёрная Вдова вступают в войну с захватчиком.


премьера (мир) 25 апреля 2012
премьера (РФ) 3 мая 2012

Качество:BDRip 1080p
Продолжительность: 02:22:54

Формат: MKV
Видео кодек: AVC
Аудио кодек: DTS, AC3
Видео: 1920x1080 (16:9), 13,0 Мбит/сек, 23,976 fps, 0.261 bit/pix
Аудио:
русский (AC3, 6 ch, 640 Кбит/с)
украинский (AC3, 6 ch, 640 Кбит/с)
английский (DTS, 6 ch, 1510 Кбит/с)
MediaInfo ▼Text
Общее
Уникальный идентификатор : 204394034805122203122270297846898882742 (0x99C4DBF5171DD7B0A85587FFBC7DF8B6)
Полное имя : Z:Mstiteli.2012.x264.BDRip(1080p).mkv
Формат : Matroska
Версия формата : Version 2
Размер файла : 15,8 Гбайт
Продолжительность : 2 ч. 22 м.
Общий поток : 15,8 Мбит/сек
Название фильма : --SCHUMAHER--
Дата кодирования : UTC 2012-08-21 20:25:06
Программа кодирования : mkvmerge v5.7.0 (The Whirlwind) built on Jul 8 2012 20:08:51
Библиотека кодирования : libebml v1.2.3 + libmatroska v1.3.0

Видео
Идентификатор : 1
Формат : AVC
Формат/Информация : Advanced Video Codec
Профиль формата : [email protected]
Параметр CABAC формата : Да
Параметр ReFrames формата : 4 кадра
Идентификатор кодека : V_MPEG4/ISO/AVC
Продолжительность : 2 ч. 22 м.
Битрейт : 13,0 Мбит/сек
Ширина : 1920 пикселей
Высота : 1080 пикселей
Соотношение сторон : 16:9
Частота кадров : 23,976 кадра/сек
Цветовое пространство : YUV
Субдискретизация насыщенности : 4:2:0
Битовая глубина : 8 бит
Тип развёртки : Прогрессивная
Бит/(Пиксели*Кадры) : 0.261
Размер потока : 12,7 Гбайт (80%)
Библиотека кодирования : x264 core 125 r2208 d9d2288
Настройки программы : cabac=1 / ref=4 / deblock=1:-3:-3 / analyse=0x3:0x133 / me=umh / subme=11 / psy=1 / psy_rd=0.85:0.00 / mixed_ref=1 / me_range=32 / chroma_me=1 / trellis=2 / 8x8dct=1 / cqm=0 / deadzone=21,11 / fast_pskip=0 / chroma_qp_offset=-2 / threads=18 / lookahead_threads=3 / sliced_threads=0 / nr=0 / decimate=1 / interlaced=0 / bluray_compat=0 / constrained_intra=0 / bframes=10 / b_pyramid=2 / b_adapt=2 / b_bias=0 / direct=3 / weightb=1 / open_gop=0 / weightp=2 / keyint=250 / keyint_min=23 / scenecut=40 / intra_refresh=0 / rc_lookahead=60 / rc=2pass / mbtree=1 / bitrate=13000 / ratetol=1.0 / qcomp=0.60 / qpmin=0 / qpmax=69 / qpstep=4 / cplxblur=20.0 / qblur=0.5 / ip_ratio=1.40 / aq=1:0.80
Язык : English
Default : Да
Forced : Да

Аудио #1
Идентификатор : 2
Формат : AC-3
Формат/Информация : Audio Coding 3
Расширение режима : CM (complete main)
Параметр Endianness формата : Big
Идентификатор кодека : A_AC3
Продолжительность : 2 ч. 22 м.
Вид битрейта : Постоянный
Битрейт : 640 Кбит/сек
Каналы : 6 каналов
Расположение каналов : Front: L C R, Side: L R, LFE
Частота : 48,0 КГц
Битовая глубина : 16 бит
Метод сжатия : С потерями
Размер потока : 654 Мбайт (4%)
Язык : Russian
Default : Да
abbfde77a51645c1e942a46e77b4c94c87bc5d9eМстители / The Avengers (Джосс Уидон, фантастика, боевик, триллер, 2012) [BDRip 1080p, полное дублирование (рус., укр), оригинал, субтитры] Мстители / The Avengers (Джосс Уидон, фантастика, боевик, триллер, 2012) [BDRip 1080p, полное дублирование (рус., укр), оригинал, субтитры] " />

Аплоадер: Админ, дата: 22-08-2012, 09:03, торрент скачан: 359 раз

Понравилась раздача? Посмотрите эти:
  • Мстители / The Avengers (Джосс Уидон, Фантастика, боевик, триллер, 2012) [A ...
  • [iPhone, iPod] Мстители / The Avengers (Джосс Уидон, фантастика, фэнтези, б ...
  • [3D] Мстители / The Аvengers (Джосс Уидон, Фантастика, Фэнтези, Боевик, При ...
  • Мстители / The Avengers (Джосс Уидон, Фантастика, Боевик, Приключения, 2012 ...
  • Мстители / The Avengers (Джосс Уидон, фантастика, боевик, 2012) [BDRip-AVC, ...
  • Мстители / The Avengers (Джосс Уидон, фантастика, боевик, приключения, 2012 ...
  • Мстители / The Avengers (Джосс Уидон, фантастика, боевик, триллер, 2012) [B ...
  • [3D] Мcтители / The Аvengers (Джосс Уидон, Фантастика, Боевик, 2012) [BDRip ...
  • [3D] Мcтители / The Аvengers (Джосс Уидон, Фантастика, Боевик, 2012) [BDRip ...
  • Мстители / The Avengers (Джосс Уидон, фантастика, боевик, триллер, 2012) [B ...
  • Мстители / The Avengers (Джосс Уидон, Фантастика, боевик, триллер, 2012) [B ...
  • Мстители / The Avengers (Джосс Уидон, фантастика, боевик, триллер, 2012) [B ...
  • Мстители / The Avengers (Джосс Уидон, Фантастика, боевик, приключения, 2012 ...
  • Мстители / The Avengers (Джосс Уидон, фантастика, боевик, триллер,2012) [DV ...
  • Мстители / The Avengers (Джосс Уидон, фантастика, боевик, приключения, 2012 ...
  • Мстители / The Avengers (Джосс Уидон, фантастика, боевик, приключения, 2012 ...
  • Мстители / The Avengers (Джосс Уидон, фантастика, боевик, триллер, 2012) [ ...
  • Мстители / The Avengers (Джосс Уидон, фантастика, боевик, приключения, 2012 ...
  • [3D] Мстители / The Avengers (Джосс Уидон, Фантастика, боевик, приключения ...
  • Мстители / The Avengers (Джосс Уидон, фантастика, боевик, приключения, 2012 ...
  • Мстители / The Avengers (Джосс Уидон, фантастика, боевик, приключения, 2012 ...
  • Мстители / The Avengers (Джосс Уидон, Фантастика, Боевик, Приключения, 2012 ...
  • Мстители / The Avengers (Джосс Уидон, Фантастика, Боевик, Приключения, 2012 ...
  • Мстители / The Avengers (Джосс Уидон, фантастика, боевик, приключения, 2012 ...
  • Мстители / The Avengers (Джосс Уидон, фантастика, боевик, приключения, 2012 ...
  • Информация
    Посетители, находящиеся в группе Гости, не могут оставлять комментарии к данной публикации.