вход на сайт

Имя пользователя :
Пароль :

Восстановление пароля Регистрация
Диктатор / The Dictator (Ларри Чарльз, комедия, 2012) [BDRip 1080p, Авторский (одноголосый закадровый) + Оригинал + SUB]
Рейтинг:
(голосов: 1)



[img]{THEME}/images/logopost.png[/img]



Диктатор / The Dictator
-

Год выпуска: 2012
Страна: США
Производство: Four by Two Films, Kanzaman S.A.
Жанр: комедия

Режиссёр: Ларри Чарльз | Larry Charles
В ролях:Саша Барон Коэн (Aladeen / Efawadh), Анна Фэрис (Zoey), Бен Кингсли (Tamir), Джейсон Манцукас (Nadal), Саид Бадрия (Omar), Мишель Берг (Aladeens Mother), Роки Ситрон (Baby Aladeen), Лиам Кампора (Aladeen Age 6), Аасиф Мандви (Doctor), Ризван Манжи (Patient), Рик Чэмберс (Newscaster Voiceover, озвучка), Эльсайед Мохамед (Wadiyan Olympic Official)

Перевод: 1 - Авторский (одноголосый закадровый ) | Киреев Антон - по переводу Пучкова Дмитрия
2 - Оригинал (Английский)
Субтитры: русские (по Пучкову), английские, английские (forced)

Описание:
Героическая история диктатора, который рискует своей жизнью, чтобы ни в коем случае не допустить демократию в свою столь любовно угнетаемую страну.



Дата премьеры (мир): 16 мая 2012
Дата премьеры (РФ): 17 мая 2012, «Централ Партнершип»
Релиз на DVD: 27 августа 2012, «Новый Диск»
Релиз на Blu-Ray: 10 сентября 2012, «Новый Диск»

Качество: BDRip 1080
Продолжительность: 01:38:47 час.

Формат: MKV
Видео кодек: H.264
Аудио кодек: DTS
Видео: 1920x800 (2.40:1), 23.976 fps, H.264 ~8 172 kbps avg, 0.216 bit/pixel
Аудио #1: 48 kHz, DTS, 3/2 (L,C,R,l,r) + LFE ch, ~1536.00 kbps avg | Авторский (одноголосый закадровый ) | Киреев Антон - по переводу Пучкова Дмитрия
Аудио #2: 48 kHz, DTS, 3/2 (L,C,R,l,r) + LFE ch, ~1536.00 kbps avg | Оригинал (Английский)
MediaInfo ▼General
Unique ID : 203230233928082353460267865741953820223 (0x98E4B824E06644D3A5C286E8B0F7663F)
Complete name : The.Dictator.2012.UNRATED.1080p.BluRay.Rus.Eng-ThD.mkv
Format : Matroska
Format version : Version 2
File size : 7.72 GiB
Duration : 1h 38mn
Overall bit rate : 11.2 Mbps
Encoded date : UTC 2012-08-17 05:33:32
Writing application : mkvmerge v5.7.0 (The Whirlwind) built on Jul 8 2012 20:08:51
Writing library : libebml v1.2.3 + libmatroska v1.3.0
Attachment : Yes
Video
ID : 1
Format : AVC
Format/Info : Advanced Video Codec
Format profile : [email protected]
Format settings, CABAC : Yes
Format settings, ReFrames : 5 frames
Codec ID : V_MPEG4/ISO/AVC
Duration : 1h 38mn
Bit rate : 8 172 Kbps
Width : 1 920 pixels
Height : 800 pixels
Display aspect ratio : 2.40:1
Frame rate mode : Constant
Frame rate : 23.976 fps
Color space : YUV
Chroma subsampling : 4:2:0
Bit depth : 8 bits
Scan type : Progressive
Bits/(Pixel*Frame) : 0.216
Stream size : 5.49 GiB (71%)
Title : Release for RuTracker
Writing library : x264 core 125 r2200 999b753
Encoding settings : cabac=1 / ref=5 / deblock=1:-3:-3 / analyse=0x3:0x133 / me=umh / subme=11 / psy=1 / psy_rd=1.05:0.00 / mixed_ref=1 / me_range=32 / chroma_me=1 / trellis=2 / 8x8dct=1 / cqm=0 / deadzone=21,11 / fast_pskip=0 / chroma_qp_offset=-2 / threads=18 / lookahead_threads=3 / sliced_threads=0 / nr=0 / decimate=0 / interlaced=0 / bluray_compat=0 / constrained_intra=0 / bframes=10 / b_pyramid=2 / b_adapt=2 / b_bias=0 / direct=3 / weightb=1 / open_gop=0 / weightp=2 / keyint=250 / keyint_min=23 / scenecut=40 / intra_refresh=0 / rc=crf / mbtree=0 / crf=16.5 / qcomp=0.75 / qpmin=0 / qpmax=69 / qpstep=4 / ip_ratio=1.40 / pb_ratio=1.20 / aq=2:0.55
Language : English
Default : Yes
Forced : No
Audio #1
ID : 2
Format : DTS
Format/Info : Digital Theater Systems
Codec ID : A_DTS
Duration : 1h 38mn
Bit rate mode : Constant
Bit rate : 1 510 Kbps
Channel(s) : 6 channels
Channel positions : Front: L C R, Side: L R, LFE
Sampling rate : 48.0 KHz
Bit depth : 24 bits
Compression mode : Lossy
Stream size : 1.04 GiB (13%)
Title : DTS 5.1 @ 1536 kbps - Одноголосый, А. Киреев по переводу Д. Пучкова
Language : Russian
Default : Yes
Forced : No
Audio #2
ID : 3
Format : DTS
Format/Info : Digital Theater Systems
Codec ID : A_DTS
Dur
66554d234c1eb977a9a0d3f69b164e3d6a787737Диктатор / The Dictator (Ларри Чарльз, комедия, 2012) [BDRip 1080p, Авторский (одноголосый закадровый) + Оригинал + SUB] Диктатор / The Dictator (Ларри Чарльз, комедия, 2012) [BDRip 1080p, Авторский (одноголосый закадровый) + Оригинал + SUB] " />

Аплоадер: Админ, дата: 18-08-2012, 13:00, торрент скачан: 359 раз

Понравилась раздача? Посмотрите эти:
  • Паркер / Parker (Тейлор Хэкфорд, Боевик, триллер, криминал, 2013) [BDRip 1 ...
  • Экипаж / Flight (Роберт Земекис, драма, 2012) [BDRip 1080p, Профессиональны ...
  • Бруно / Bruno (Саша Барон Коэн, сатира, 2009) [BDRip 1080p, дубляж, оригина ...
  • Диктатор / The Dictator [UNRATED] (Ларри Чарльз, Комедия, 2012) [HDRip, Авт ...
  • Диктатор [Расширенная версия] / The Dictator [UNRATED] (Ларри Чарльз, Комед ...
  • Диктатор [Расширенная версия] / The Dictator [UNRATED] (Ларри Чарльз, комед ...
  • Диктатор [Театральная версия] / The Dictator [Theatrical Cut] (Ларри Чарльз ...
  • Диктатор [Театральная версия] / The Dictator [Theatrical Cut] (Ларри Чарльз ...
  • Диктатор [Расширенная версия] / The Dictator [UNRATED] (Ларри Чарльз, Комед ...
  • Любимые / The Loved Ones (Шон Бирн, ужасы, триллер, драма, 2009) [BDRip-AVC ...
  • Третий лишний / Ted [Unrated] (Сет МакФарлейн, Фэнтези, комедия, 2012) [BDR ...
  • Приемыш / Foster (Джонатан Ньюман, Драма, Комедия, Семейный, 2011) [BDRip 7 ...
  • Морской бой / Battleship (Питер Берг, Фантастика, боевик, триллер, приключе ...
  • Хижина в лесу / The Cabin in the Woods (Дрю Годдард, ужасы, триллер, 2012) ...
  • Диктатор / The Dictator (Ларри Чарльз, Комедия, 2012) [BDRip-AVC, Дубляж, О ...
  • Диктатор / The Dictator (Ларри Чарльз, Комедия, 2012) [BD-Remux 1080p, Дубл ...
  • Пираньи 3DD / Piranha 3DD (Джон Гулажер, ужасы, триллер, комедия, 2012) [BD ...
  • Диктатор [Театральная версия] / The Dictator [Theatrical Cut] (Ларри Чарльз ...
  • Особо опасны / Savages [UNRATED] (Оливер Стоун, Триллер, драма, криминал, 2 ...
  • Диктатор [Театральная версия] / The Dictator [Theatrical Cut] (Ларри Чарльз ...
  • Викинги / Outlander (Ховард МакКейн, Фантастика, боевик, приключения, 2008) ...
  • Диктатор [Театральная версия] / The Dictator [Theatrical Cut] (Ларри Чарльз ...
  • Диктатор [Театральная версия] / The Dictator [Theatrical Cut] (Ларри Чарльз ...
  • Диктатор [Театральная версия] / The Dictator [Theatrical Cut] (Ларри Чарль ...
  • Диктатор / The Dictator (Ларри Чарльз, Комедия, 2012) [320x240] [HDRip, Дуб ...
  • Информация
    Посетители, находящиеся в группе Гости, не могут оставлять комментарии к данной публикации.