вход на сайт

Имя пользователя :
Пароль :

Восстановление пароля Регистрация
Королевство полной луны / Moonrise Kingdom (Уэс Андерсон, Драма, комедия, 2012) [BDRip 720p, Дубляж]
Рейтинг:
(голосов: 1)



[img]{THEME}/images/logopost.png[/img]



Королевство полной луны / Moonrise Kingdom

Год выпуска: 2012
Страна: США
Производство: American Empirical Pictures, Indian Paintbrush, Moonrise, Scott Rudin Productions
Жанр: Драма, комедия

Режиссёр: Уэс Андерсон
В ролях: Брюс Уиллис, Эдвард Нортон, Билл Мюррей, Кара Хэйуорд, Джаред Гилман, Джейсон Шварцман, Тильда Суинтон, Фрэнсис МакДорманд, Харви Кейтель, Боб Бэлабан

Перевод: Дубляж
Субтитры: Отсутствуют

Описание: После таинственного исчезновения мальчишки и девчонки из лагеря бойскаутов принципиальный шериф ставит на уши весь город. Свое альтернативное расследование начинает тренер бойскаутов. Мамаша девушки бьется в истерике, а отец, кажется, что-то скрывает… Ведь у каждого в жизни бывает первая любовь.

Качество:BDRip 720p
Продолжительность: 01:33:37 час.


Формат: MKV
Видео кодек: x264
Аудио кодек:DTS
Видео: 1280x720 (16:9), 23,976 fps, x264 ~9 227 kbps avg,0.420 bit/pixel
Аудио: 48 kHz, DTS, 3/2 (L,C,R,l,r) + LFE ch, ~1510.00 kbps avg

Дата премьеры (мир): 16 мая 2012
Дата премьеры (РФ): 21 июня 2012, «Парадиз»


MediaInfo ▼........................................................::::LOG::::..............................................................
-[NoImage] x264 [info]: frame I:975 Avg QP:16.27 size:188313
-[NoImage] x264 [info]: frame P:23748 Avg QP:17.18 size: 95153
-[NoImage] x264 [info]: frame B:109962 Avg QP:20.39 size: 36997
-[NoImage] x264 [info]: consecutive B-frames: 1.5% 1.6% 3.5% 8.5% 10.4% 43.5% 8.5% 2.8% 5.8% 3.3% 4.0% 2.7% 3.8%

Общее
Полное имя : Korolevstvo.polnoj.luny.2012.D.BDRip.720p.IRONCLUB.mkv
Формат : Matroska
Версия формата : Version 2
Размер файла : 7,05 Гбайт
Продолжительность : 1 ч. 33 м.
Общий поток : 10,8 Мбит/сек
Название фильма : .........:::::::IRONCLUB::::::::..............
Дата кодирования : UTC 2012-08-04 05:33:23
Программа кодирования : mkvmerge v5.3.0 (I could have danced) built on Feb 9 2012 10:38:07
Библиотека кодирования : libebml v1.2.3 + libmatroska v1.3.0

Видео
Идентификатор : 1
Формат : AVC
Формат/Информация : Advanced Video Codec
Профиль формата : [email protected]
Параметр CABAC формата : Да
Параметр ReFrames формата : 9 кадров
Идентификатор кодека : V_MPEG4/ISO/AVC
Продолжительность : 1 ч. 33 м.
Битрейт : 9277 Кбит/сек
Ширина : 1280 пикселей
Высота : 720 пикселей
Соотношение сторон : 16:9
Частота кадров : 23,976 кадра/сек
Цветовое пространство : YUV
Субдискретизация насыщенности : 4:2:0
Битовая глубина : 8 бит
Тип развёртки : Прогрессивная
Бит/(Пиксели*Кадры) : 0.420
Размер потока : 5,93 Гбайт (84%)
Библиотека кодирования : x264 core 125 r2200 999b753
Настройки программы : cabac=1 / ref=9 / deblock=1:-3:-3 / analyse=0x3:0x133 / me=umh / subme=11 / psy=1 / psy_rd=0.90:0.10 / mixed_ref=1 / me_range=32 / chroma_me=1 / trellis=2 / 8x8dct=1 / cqm=0 / deadzone=21,11 / fast_pskip=0 / chroma_qp_offset=-3 / threads=12 / lookahead_threads=2 / sliced_threads=0 / nr=0 / decimate=1 / interlaced=0 / bluray_compat=0 / constrained_intra=0 / bframes=12 / b_pyramid=2 / b_adapt=2 / b_bias=0 / direct=3 / weightb=1 / open_gop=0 / weightp=2 / keyint=240 / keyint_min=22 / scenecut=40 / intra_refresh=0 / rc_lookahead=40 / rc=2pass / mbtree=1 / bitrate=9277 / ratetol=1.0 / qcomp=0.60 / qpmin=0 / qpmax=69 / qpstep=4 / cplxblur=20.0 / qblur=0.5 / vbv_maxrate=50000 / vbv_bufsize=62500 / nal_hrd=none / ip_ratio=1.40 / aq=2:1.00
Язык : English
Default : Да
Forced : Нет

Аудио
Идентификатор : 2
Формат : DTS
Формат/Информация : Digital Theater Systems
Идентификатор кодека : A_DTS
Продолжительность : 1 ч. 33 м.
Вид битрейта : Постоянный
Битрейт : 1510 Кбит/сек
Каналы : 6 каналов
Расположение каналов : Front: L C R, Side: L R, LFE
Частота : 48,0 КГц
Битовая глубина : 24 бит
Метод сжатия : С потерями
Размер потока : 1011 Мбайт (14%)
Язык : Russian
Default : Да
Forced : Нет

Меню
00:00:00.00
5eab2215e46722df59121090190e226bc8fd3c1fКоролевство полной луны / Moonrise Kingdom (Уэс Андерсон, Драма, комедия, 2012) [BDRip 720p, Дубляж] Королевство полной луны / Moonrise Kingdom (Уэс Андерсон, Драма, комедия, 2012) [BDRip 720p, Дубляж] " />

Аплоадер: Админ, дата: 4-08-2012, 14:15, торрент скачан: 359 раз

Понравилась раздача? Посмотрите эти:
  • Королевство полной луны / Moonrise Kingdom (Уэс Андерсон, Драма, мелодрама, ...
  • Семь психопатов / Seven Psychopaths (Мартин МакДона, комедия, криминал, 201 ...
  • Линкольн / Lincoln (Стивен Спилберг, Драма, военный, биография, история, 20 ...
  • Отверженные / Les Miserables (Том Хупер, Мюзикл, драма, мелодрама, 2012) [B ...
  • Отверженные / Les Miserables (Том Хупер, мюзикл, драма, мелодрама, 2012) [B ...
  • Цель номер один / Zero Dark Thirty (Кэтрин Бигелоу, триллер, драма, история ...
  • Хичкок / Hitchcock (Саша Джерваси, Драма, история, биография, 2012) [BDRip- ...
  • Весенние надежды / Hope Springs (Дэвид Фрэнкел, драма, мелодрама, комедия, ...
  • Королевство полной луны / Moonrise Kingdom (Уэс Андерсон, драма, комедия, 2 ...
  • Королевство полной луны / Moonrise Kingdom (Уэс Андерсон, Драма, комедия, 2 ...
  • Срочная доставка / Premium Rush (Дэвид Кепп, Боевик, триллер, 2012) [BDRip- ...
  • Постовой на перекрестке / The Crossing Guard (Шон Пенн, драма, 1995) [BDRip ...
  • Королевство полной луны / Moonrise Kingdom (Уэс Андерсон, Драма, мелодрама, ...
  • Эволюция Борна / The Bourne Legacy (Тони Гилрой, Боевик, триллер, детектив, ...
  • Порочная страсть / Arbitrage (Николас Джареки, Триллер, драма, 2012) [BDRip ...
  • Переростки / The Inbetweeners (Бен Палмер / Ben Palmer, комедия, 2011) [BDR ...
  • Дирижёр (Павел Лунгин, драма, 2012) [BDRip 720p, Не требуется]
  • Дети сексу не помеха / Friends with Kids (Дженнифер Уэстфелд, комедия, 2011 ...
  • Лето. Одноклассники. Любовь / LOL (Лиза Азуэлос, Драма, мелодрама, комедия, ...
  • Королевство полной луны / Moonrise Kingdom (Уэс Андерсон, Драма, мелодрама, ...
  • Королевство полной луны / Moonrise Kingdom (Уэс Андерсон, драма, комедия, 2 ...
  • Королевство полной луны / Moonrise Kingdom (Уэс Андерсон, драма, комедия, 2 ...
  • Королевство полной луны / Moonrise Kingdom (Уэс Андерсон, Драма, комедия, 2 ...
  • Королевство полной луны / Moonrise Kingdom (Уэс Андерсон, драма, комедия, ...
  • Королевство полной луны / Moonrise Kingdom (Уэс Андерсон, Драма, комедия, 2 ...
  • Информация
    Посетители, находящиеся в группе Гости, не могут оставлять комментарии к данной публикации.