вход на сайт

Имя пользователя :
Пароль :

Восстановление пароля Регистрация
Любовь / Love (Уильям Юбэнк, Фантастика, драма, 2011) [BDRip 720p, Профессиональный (многоголосый, закадровый), Оригинал]
Рейтинг:
(голосов: 1)



[img]{THEME}/images/logopost.png[/img]



Любовь / Love

Год выпуска: 2011
Страна: США
Производство: Griffin Interplanetary Studios, Five VFX
Жанр: Фантастика, драма

Режиссёр: Уильям Юбэнк
В ролях: Ганнер Райт, Кори Ричардсон, Брэдли Хорн, Ненси Стилле, Роджер Е. Фантер, Джесси Хотчкисс,Трой Миттляйдер, Брид Кавенеу, Эмбир Чайлдерс, Б. Энтони Коэн

Перевод: Профессиональный (многоголосый, закадровый) [лицензия], Оригинал
Субтитры: Отсутствуют

Описание: После потери связи с Землей, астронавт Ли Миллер остается без средств к существованию на орбите, в одиночестве на борту интернациональной космической станции. Время тикает и система жизнеобеспечения постепенно истощается, Ли сражается пытаясь сохранить здравомыслие — это самое простое, чтобы оставаться живым. Его миром становится одинокое существование в замкнутом пространстве, До тех пор пока он не сделал никому не известное открытие на борту корабля…Качество: BDRip 720p [CHD]
Продолжительность:01:23:51 час.


Формат: MKV
Видео кодек: x264
Аудио кодек: AC3, DTS
Видео: 1280x720 (16:9), 23.976 fps, x264 ~7 027 kbps avg, 0.318 bit/pixel
Аудио#1: 48 kHz, AC3 Dolby Digital, 3/2 (L,C,R,l,r) + LFE ch, ~640 kbps
Аудио#2: 48 kHz, DTS, 3/2 (L,C,R,l,r) + LFE ch, ~1510.00 kbps avg

Дата премьеры (мир): 2 февраля 2011
Дата премьеры (РФ): 7 июня 2012, «АКМ»

MediaInfo ▼General
Unique ID : 170886700066299229583579368772036580977 (0x808F94CE78F6E96593A084F8500DD671)
Complete name : Ljubov.2011.P.BDRip.720p.IRONCLUB.mkv
Format : Matroska
Format version : Version 2
File size : 5.38 GiB
Duration : 1h 24mn
Overall bit rate : 9 174 Kbps
Movie name : IRONCLUB
Encoded date : UTC 2012-07-26 17:02:36
Writing application : mkvmerge v4.9.1 (Ich will) built on Jul 11 2011 23:53:15
Writing library : libebml v1.2.1 + libmatroska v1.1.1

Video
ID : 1
Format : AVC
Format/Info : Advanced Video Codec
Format profile : [email protected]
Format settings, CABAC : Yes
Format settings, ReFrames : 9 frames
Codec ID : V_MPEG4/ISO/AVC
Duration : 1h 24mn
Bit rate : 7 027 Kbps
Width : 1 280 pixels
Height : 720 pixels
Display aspect ratio : 16:9
Frame rate : 23.976 fps
Color space : YUV
Chroma subsampling : 4:2:0
Bit depth : 8 bits
Scan type : Progressive
Bits/(Pixel*Frame) : 0.318
Stream size : 4.02 GiB (75%)
Title : Angels.and.Airwaves.Love.2011.BluRay.720p.DTS.x264-CHD
Writing library : x264 core 122 r2184 5c85e0a
Encoding settings : cabac=1 / ref=9 / deblock=1:-3:-3 / analyse=0x3:0x113 / me=umh / subme=10 / psy=1 / psy_rd=1.10:0.10 / mixed_ref=1 / me_range=32 / chroma_me=1 / trellis=2 / 8x8dct=1 / cqm=0 / deadzone=21,11 / fast_pskip=0 / chroma_qp_offset=-2 / threads=12 / sliced_threads=0 / nr=0 / decimate=1 / interlaced=0 / bluray_compat=0 / constrained_intra=0 / bframes=6 / b_pyramid=2 / b_adapt=2 / b_bias=0 / direct=3 / weightb=1 / open_gop=0 / weightp=2 / keyint=250 / keyint_min=23 / scenecut=40 / intra_refresh=0 / rc_lookahead=60 / rc=2pass / mbtree=0 / bitrate=7027 / ratetol=1.0 / qcomp=0.60 / qpmin=0 / qpmax=69 / qpstep=4 / cplxblur=20.0 / qblur=0.5 / vbv_maxrate=40000 / vbv_bufsize=40000 / nal_hrd=none / ip_ratio=1.40 / pb_ratio=1.30 / aq=1:0.90
Language : English
Default : Yes
Forced : Yes

Audio #1
ID : 2
Format : AC-3
Format/Info : Audio Coding 3
Mode extension : CM (complete main)
Format settings, Endianness : Big
Codec ID : A_AC3
Duration : 1h 24mn
Bit rate mode : Constant
Bit rate : 640 Kbps
Channel(s) : 6 channels
Channel positions : Front: L C R, Side: L R, LFE
Sampling rate : 48.0 KHz
Bit depth : 16 bits
Compression mode : Lossy
Stream size : 385 MiB (7%)
Title : DD 5.1 @ 640 kbps - MVO, BD RUS
Language : Russian
Default : Yes
Forced : Yes

Audio #2
ID : 3
Format : DTS
Format/Info : Digital Theater Systems
Codec ID : A_DTS
Duration : 1h 24mn
Bit rate mode : Constant
Bit rate : 1 510 Kbps
Channel(s) : 6 channels
Channel positions : Front: L C R, Side: L R, LFE
Sampl
7d931115aa58dec21405d5a5158b7d560c838f98Любовь / Love (Уильям Юбэнк, Фантастика, драма, 2011) [BDRip 720p, Профессиональный (многоголосый, закадровый), Оригинал] Любовь / Love (Уильям Юбэнк, Фантастика, драма, 2011) [BDRip 720p, Профессиональный (многоголосый, закадровый), Оригинал] " />

Аплоадер: Админ, дата: 27-07-2012, 01:07, торрент скачан: 359 раз

Понравилась раздача? Посмотрите эти:
  • Гость / The Caller (Мэттью Паркхилл, триллер, детектив, 2011) [BDRip 720p, ...
  • Безопасность не гарантируется / Safety Not Guaranteed (Колин Треворроу, фан ...
  • Суррогат / The Sessions (Бен Луин, драма, 2012) [BDRip 720p, Профессиональн ...
  • Джекпот / Arme Riddere (Магнус Мартенс, Боевик, комедия, криминал, 2011) [B ...
  • Убить по расписанию / Ticking Clock (Эрни Барбараш, фантастика, боевик, три ...
  • Любовь / Love (Уильям Юбэнк, Фантастика, драма, 2011) [BDRip-AVC, Профессио ...
  • Экстази / Irvine Welshs Ecstasy (Роб Хейдон, Драма, мелодрама, 2011) [BDRip ...
  • Дети шпионов 4D / Spy Kids: All the Time in the World in 4D (Роберт Родриге ...
  • Рыжий пес / Red Dog (Крив Стендерс, драма, комедия, семейный, 2011) [BDRip ...
  • Значит, война / This Means War (МакДжи, боевик, мелодрама, комедия, 2012) [ ...
  • Учитель на замену / Detachment (Тони Кэй, драма, 2011) [BDRip 720р, Професс ...
  • Джок / Jock (Дункан МакНили, мультфильм, комедия, приключения, семейный, 20 ...
  • Любовь живет три года / Lamour dure trois ans (Фредерик Бегбедер / Frederic ...
  • Откровения / Elles (Малгожата Шумовска, Драма, 2011) [BDRip 720p, Профессио ...
  • Семь футов / Seven Below (Кевин Каррауэй, Ужасы, триллер, 2012) [BDRip 720p ...
  • Судный день / The Day (Дуглас Арниокоски, Фантастика, триллер, драма, 2011) ...
  • Доля ангелов / The Angels Share (Кен Лоуч, Драма, комедия, 2012) [BDRip 720 ...
  • Mylene Farmer / Du Temps [2011, Pop, HDTVRip]
  • Любовь / Love (Уильям Юбэнк, Фантастика, драма, 2011) [HDRip, Профессиональ ...
  • Любовь / Love (Уильям Юбэнк, фантастика, драма, 2011) [HDRip, Профессиональ ...
  • Информация
    Посетители, находящиеся в группе Гости, не могут оставлять комментарии к данной публикации.