вход на сайт

Имя пользователя :
Пароль :

Восстановление пароля Регистрация
1+1 / Неприкасаемые / Intouchables (Оливье Накаш, Эрик Толедано, Драма, 2011) [BDRip 1080p, дубляж, оригинал (французский), субтитры]
Рейтинг:
(голосов: 1)



[img]{THEME}/images/logopost.png[/img]



1+1 / Неприкасаемые / Intouchables

«Иногда Вы должны достигнуть чьего-либо мира, чтобы узнать то, что отсутствует в Вашем собственном.»

Год выпуска: 2011
Страна: Франция
Производство: Quad Productions
Жанр: Драма, комедия

Режиссёр: Оливье Накаш, Эрик Толедано
В ролях: Франсуа Клюзе, Омар Сай, Анн Ле Ни, Одри Флеро, Клотильд Молле, Альба Гайя, Крагеде Беллуджи, Сирил Менди, Кристиан Амери, Грегуар Эстерманн, Жозефин де Мо

Перевод: Профессиональный (полное дублирование), Французский [отдельный файл]
Субтитры:Русские (El Brujo), Русские (Татьяны Фалимоновой), French, English [отдельный файл] [полные, UTF-8]

Описание
Пострадав в результате несчастного случая, богатый аристократ Филипп нанимает в помощники человека, который менее всего подходит для этой работы, — молодого жителя предместья Дрисса, только что освободившегося из тюрьмы. Несмотря на то, что Филипп прикован к инвалидному креслу, Дриссу удается привнести в размеренную жизнь аристократа дух приключений.



Доп. информация
Mediainfo ▼TextОбщее
Уникальный идентификатор : 179877552141806793418467540526772403229 (0x87532809C8CEEB289878952865463C1D)
Полное имя : D:1.plus.1.2011.MPEG-4.AVC.BDRip.1080p1.plus.1.2011.MPEG-4.AVC.BDRip.1080p.mkv
Формат : Matroska
Версия формата : Version 2
Размер файла : 7,93 Гбайт
Продолжительность : 1 ч. 52 м.
Общий поток : 10,1 Мбит/сек
Название фильма : 1+1 / Неприкасаемые / Intouchables (2011)
Дата кодирования : UTC 2012-07-19 13:32:09
Программа кодирования : mkvmerge v3.4.0 (Rapunzel) сборка от May 15 2010 09:38:20
Библиотека кодирования : libebml v0.8.0 + libmatroska v0.9.0

Видео
Идентификатор : 1
Формат : AVC
Формат/Информация : Advanced Video Codec
Профиль формата : [email protected]
Параметр CABAC формата : Да
Параметр ReFrames формата : 4 кадра
Идентификатор кодека : V_MPEG4/ISO/AVC
Продолжительность : 1 ч. 52 м.
Битрейт : 9500 Кбит/сек
Ширина : 1920 пикселей
Высота : 1040 пикселей
Соотношение сторон : 1,85:1
Частота кадров : 24,000 кадра/сек
Цветовое пространство : YUV
Субдискретизация насыщенности : 4:2:0
Битовая глубина : 8 бит
Тип развёртки : Прогрессивная
Бит/(Пиксели*Кадры) : 0.198
Размер потока : 7,27 Гбайт (92%)
Библиотека кодирования : x264 core 125 r2200 999b753
Настройки программы : cabac=1 / ref=4 / deblock=1:-2:-2 / analyse=0x3:0x113 / me=umh / subme=11 / psy=1 / psy_rd=1.00:0.10 / mixed_ref=1 / me_range=32 / chroma_me=1 / trellis=2 / 8x8dct=1 / cqm=0 / deadzone=21,11 / fast_pskip=1 / chroma_qp_offset=-3 / threads=4 / lookahead_threads=1 / sliced_threads=0 / nr=0 / decimate=1 / interlaced=0 / bluray_compat=0 / constrained_intra=0 / bframes=4 / b_pyramid=2 / b_adapt=2 / b_bias=0 / direct=3 / weightb=1 / open_gop=0 / weightp=2 / keyint=240 / keyint_min=23 / scenecut=40 / intra_refresh=0 / rc_lookahead=60 / rc=2pass / mbtree=1 / bitrate=9500 / ratetol=1.0 / qcomp=0.60 / qpmin=12 / qpmax=50 / qpstep=4 / cplxblur=20.0 / qblur=0.5 / ip_ratio=1.40 / aq=1:0.80
Язык : English
Default : Да
Forced : Нет

Аудио
Идентификатор : 2
Формат : AC-3
Формат/Информация : Audio Coding 3
Расширение режима : CM (complete main)
Параметр Endianness формата : Big
Идентификатор кодека : A_AC3
Продолжительность : 1 ч. 52 м.
Вид битрейта : Постоянный
Битрейт : 640 Кбит/сек
Каналы : 6 каналов
Расположение каналов : Front: L C R, Side: L R, LFE
Частота : 48,0 КГц
Битовая глубина : 16 бит
Метод сжатия : С потерями
Размер потока : 513 Мбайт (6%)
Заголовок : Русский
Язык : Russian
Default : Да
Forced : Нет

Текст #1
Идентификатор : 3
Формат : UTF-8
Идентификатор кодека : S_TEXT/UTF8
Идентификатор кодека/Информация : UTF-8 Plain Text
Заголовок : Русские (El Brujo)
Язык : Russian
Default : Нет
Forced : Нет

Текст #2
Идентификатор : 4
Формат : UTF-8
Идентификатор кодека : S_TEXT/UTF8
Идентификатор кодека/Информация : UTF-8 Plain Text
Заголовок : Русские (Татьяны Фалимоновой)
Язык : Russian
Default : Нет
Forced : Нет

Меню
00:00:00.000 : en:00:00:00.000
00:07:26.000 : en:00:07:26.000
0
f16d2250ab1677e0578871bc32527fdce59b885f1+1 / Неприкасаемые / Intouchables (Оливье Накаш, Эрик Толедано, Драма, 2011) [BDRip 1080p, дубляж, оригинал (французский), субтитры] 1+1 / Неприкасаемые / Intouchables (Оливье Накаш, Эрик Толедано, Драма, 2011) [BDRip 1080p, дубляж, оригинал (французский), субтитры] " />

Аплоадер: Админ, дата: 23-07-2012, 11:54, торрент скачан: 359 раз

Понравилась раздача? Посмотрите эти:
  • 1+1 / Неприкасаемые / Intouchables (Оливье Накаш, Эрик Толедано, Драма, 201 ...
  • 1+1 / Неприкасаемые / Intouchables (Оливье Накаш, Эрик Толедано, Драма, 201 ...
  • Неприкасаемые / Les Lyonnais (Оливье Маршаль, Драма, 2011) [BDRip-AVC, Дубл ...
  • 1+1 / Неприкасаемые / Intouchables ( Оливье Накаш, Эрик Толедано, драма, ко ...
  • 1+1 / Неприкасаемые / Intouchables (Оливье Накаш, Эрик Толедано, драма, ком ...
  • 1+1 / Неприкасаемые / Intouchables (Оливье Накаш, Эрик Толедано, драма, ком ...
  • 1+1 / Неприкасаемые / Intouchables (Оливье Накаш, Эрик Толедано, драма, ком ...
  • 1+1 / Неприкасаемые / Intouchables (Оливье Накаш, Эрик Толедано, драма, ком ...
  • Заражение / Contagion (Стивен Содерберг, Фантастика, 2011) [BDRip 1080p, Пр ...
  • 1+1 / Неприкасаемые / Intouchables (Оливье Накаш, Эрик Толедано, драма, ком ...
  • Неприкасаемые (1+1) / Intouchables (Оливье Накаш, Эрик Толедано, драма, ком ...
  • 1+1 / Неприкасаемые / Intouchables (Оливье Накаш, Эрик Толедано, Драма, ком ...
  • Неприкасаемые / 1+1 / Intouchables (Оливье Накаш, Эрик Толедано, драма, ком ...
  • [FR] Неприкасаемые / Intouchables (Оливье Накаш, Эрик Толедано, драма, 2011 ...
  • Неприкасаемые / Intouchables (Оливье Накаш, Эрик Толедано, Драма, 2011) [BD ...
  • Неприкасаемые / Intouchables (Оливье Накаш, Эрик Толедано, драма, комедия, ...
  • 1+1 / Неприкасаемые / Intouchables (Оливье Накаш, Эрик Толедано, драма, ком ...
  • 1+1 / Неприкасаемые / Intouchables (Оливье Накаш, Эрик Толедано, Драма, 201 ...
  • 1+1 / Неприкасаемые / Intouchables (Оливье Накаш, Эрик Толедано, драма, ком ...
  • 1+1 / Неприкасаемые / Intouchables (Оливье Накаш, Эрик Толедано, драма, ком ...
  • 1+1 / Неприкасаемые / Intouchables (Оливье Накаш, Эрик Толедано, драма, ком ...
  • Неприкасаемые / Intouchables (Оливье Накаш, Эрик Толедано, драма, комедия, ...
  • 1+1 / Неприкасаемые / Intouchables (Оливье Накаш, Эрик Толедано, драма, ком ...
  • 1+1 / Неприкасаемые / Intouchables (Оливье Накаш, Эрик Толедано, драма, ком ...
  • 1+1 / Неприкасаемые / Intouchables (Оливье Накаш, Эрик Толедано, Драма, 201 ...
  • Информация
    Посетители, находящиеся в группе Гости, не могут оставлять комментарии к данной публикации.